Вы используете незарегистрированную версию компонента "Вкладки"!

Поиск

(Free Jazz, Contemporary Jazz) Nordic Trinity (Juhani Aaltonen, Mikko Iivanainen, Klaus Suonsaari) - Eternal Echoes - 2007, FLAC (tracks+.cue), lossless

Треклист:
Nordic Trinity / Eternal Echoes
Жанр: Free Jazz, Contemporary Jazz
Страна-производитель диска: US
Год издания: 2007
Издатель (лейбл): KSJazz
Номер по каталогу: 11759-3312-2
Аудиокодек: FLAC (*.flac)
Тип рипа: tracks+.cue
Битрейт аудио: lossless
Продолжительность: 54:07
Источник (релизер): what.cd
Наличие сканов в содержимом раздачи: нет
Треклист:
1 Desire 6:47
2 Moon 5:48
3 Owl 5:04
4 Folk Song 4:52
5 Paivansade Ja Menninkainen 8:03
6 En Liten Visa For Inga 7:05
7 One Behind You 7:05
8 Alto 5:16
9 Dreaming Of You 3:39
 
Лог создания рипа
Exact Audio Copy V1.0 beta 2 from 29. April 2011
EAC extraction logfile from 18. May 2012, 14:56
Nordic Trinity / Eternal Echoes
Used drive : TSSTcorpCDDVDW SH-S223L Adapter: 1 ID: 1
Read mode : Secure
Utilize accurate stream : Yes
Defeat audio cache : Yes
Make use of C2 pointers : No
Read offset correction : 6
Overread into Lead-In and Lead-Out : No
Fill up missing offset samples with silence : Yes
Delete leading and trailing silent blocks : No
Null samples used in CRC calculations : Yes
Used interface : Native Win32 interface for Win NT & 2000
Gap handling : Appended to previous track
Used output format : User Defined Encoder
Selected bitrate : 896 kBit/s
Quality : High
Add ID3 tag : No
Command line compressor : C:\Program Files (x86)\Exact Audio Copy\Flac\flac.exe
Additional command line options : -8 -V -T "ARTIST=%artist%" -T "TITLE=%title%" -T "ALBUM=%albumtitle%" -T "DATE=%year%" -T "TRACKNUMBER=%tracknr%" -T "GENRE=%genre%" -T "PERFORMER=%albuminterpret%" -T "COMPOSER=%composer%" %haslyrics%--tag-from-file=LYRIC
TOC of the extracted CD
Track | Start | Length | Start sector | End sector
---------------------------------------------------------
1 | 0:00.00 | 6:50.26 | 0 | 30775
2 | 6:50.26 | 5:51.67 | 30776 | 57167
3 | 12:42.18 | 5:07.00 | 57168 | 80192
4 | 17:49.18 | 4:55.15 | 80193 | 102332
5 | 22:44.33 | 8:06.15 | 102333 | 138797
6 | 30:50.48 | 7:09.21 | 138798 | 170993
7 | 37:59.69 | 7:08.34 | 170994 | 203127
8 | 45:08.28 | 5:18.63 | 203128 | 227040
9 | 50:27.16 | 3:39.64 | 227041 | 243529
Track 1
Filename M:\Music\What 4\Nordic Trinity - Eternal Echoes (2007) [FLAC]\01 - Desire.wav
Pre-gap length 0:00:02.00
Peak level 98.6 %
Extraction speed 4.7 X
Track quality 99.9 %
Test CRC 41231073
Copy CRC 41231073
Track not present in AccurateRip database
Copy OK
Track 2
Filename M:\Music\What 4\Nordic Trinity - Eternal Echoes (2007) [FLAC]\02 - Moon.wav
Pre-gap length 0:00:02.60
Peak level 99.3 %
Extraction speed 4.1 X
Track quality 99.8 %
Test CRC 1CCC10AB
Copy CRC 8DEE1313
Track not present in AccurateRip database
Copy OK
Track 3
Filename M:\Music\What 4\Nordic Trinity - Eternal Echoes (2007) [FLAC]\03 - Owl.wav
Pre-gap length 0:00:03.00
Peak level 98.8 %
Extraction speed 6.1 X
Track quality 100.0 %
Test CRC 77C1B53F
Copy CRC 77C1B53F
Track not present in AccurateRip database
Copy OK
Track 4
Filename M:\Music\What 4\Nordic Trinity - Eternal Echoes (2007) [FLAC]\04 - Folk Song.wav
Pre-gap length 0:00:02.33
Peak level 98.1 %
Extraction speed 6.6 X
Track quality 100.0 %
Test CRC 8AEAE081
Copy CRC 8AEAE081
Track not present in AccurateRip database
Copy OK
Track 5
Filename M:\Music\What 4\Nordic Trinity - Eternal Echoes (2007) [FLAC]\05 - Päivänsäde ja menninkäinen.wav
Pre-gap length 0:00:03.00
Peak level 98.4 %
Extraction speed 7.4 X
Track quality 100.0 %
Test CRC 3FEC9FE4
Copy CRC 3FEC9FE4
Track not present in AccurateRip database
Copy OK
Track 6
Filename M:\Music\What 4\Nordic Trinity - Eternal Echoes (2007) [FLAC]\06 - En Liten Visa för Inga.wav
Pre-gap length 0:00:03.20
Peak level 98.5 %
Extraction speed 7.3 X
Track quality 99.9 %
Test CRC 5FDD8F6B
Copy CRC 5FDD8F6B
Track not present in AccurateRip database
Copy OK
Track 7
Filename M:\Music\What 4\Nordic Trinity - Eternal Echoes (2007) [FLAC]\07 - One Behind You.wav
Pre-gap length 0:00:03.53
Peak level 99.5 %
Extraction speed 8.5 X
Track quality 100.0 %
Test CRC EB8AD840
Copy CRC EB8AD840
Track not present in AccurateRip database
Copy OK
Track 8
Filename M:\Music\What 4\Nordic Trinity - Eternal Echoes (2007) [FLAC]\08 - Alto.wav
Pre-gap length 0:00:03.00
Peak level 99.6 %
Extraction speed 8.7 X
Track quality 100.0 %
Test CRC 0431D738
Copy CRC 0431D738
Track not present in AccurateRip database
Copy OK
Track 9
Filename M:\Music\What 4\Nordic Trinity - Eternal Echoes (2007) [FLAC]\09 - Dreaming of You.wav
Pre-gap length 0:00:03.00
Peak level 79.4 %
Extraction speed 8.5 X
Track quality 100.0 %
Test CRC D3E88847
Copy CRC D3E88847
Track not present in AccurateRip database
Copy OK
None of the tracks are present in the AccurateRip database
No errors occurred
End of status report
==== Log checksum 89AC1ECBAB8B4DBA65989CAC38222F720BC38EC0FA046A339A973A30131C8F2E ====
------------------------------------------------------------
Exact Audio Copy V1.0 beta 2 from 29. April 2011
EAC extraction logfile from 18. May 2012, 15:01
Nordic Trinity / Eternal Echoes
Used drive : TSSTcorpCDDVDW SH-S223L Adapter: 1 ID: 1
Read mode : Secure
Utilize accurate stream : Yes
Defeat audio cache : Yes
Make use of C2 pointers : No
Read offset correction : 6
Overread into Lead-In and Lead-Out : No
Fill up missing offset samples with silence : Yes
Delete leading and trailing silent blocks : No
Null samples used in CRC calculations : Yes
Used interface : Native Win32 interface for Win NT & 2000
Gap handling : Appended to previous track
Used output format : User Defined Encoder
Selected bitrate : 896 kBit/s
Quality : High
Add ID3 tag : No
Command line compressor : C:\Program Files (x86)\Exact Audio Copy\Flac\flac.exe
Additional command line options : -8 -V -T "ARTIST=%artist%" -T "TITLE=%title%" -T "ALBUM=%albumtitle%" -T "DATE=%year%" -T "TRACKNUMBER=%tracknr%" -T "GENRE=%genre%" -T "PERFORMER=%albuminterpret%" -T "COMPOSER=%composer%" %haslyrics%--tag-from-file=LYRIC
TOC of the extracted CD
Track | Start | Length | Start sector | End sector
---------------------------------------------------------
1 | 0:00.00 | 6:50.26 | 0 | 30775
2 | 6:50.26 | 5:51.67 | 30776 | 57167
3 | 12:42.18 | 5:07.00 | 57168 | 80192
4 | 17:49.18 | 4:55.15 | 80193 | 102332
5 | 22:44.33 | 8:06.15 | 102333 | 138797
6 | 30:50.48 | 7:09.21 | 138798 | 170993
7 | 37:59.69 | 7:08.34 | 170994 | 203127
8 | 45:08.28 | 5:18.63 | 203128 | 227040
9 | 50:27.16 | 3:39.64 | 227041 | 243529
Track 2
Filename M:\Music\What 4\Nordic Trinity - Eternal Echoes (2007) [FLAC]\02 - Moon.wav
Pre-gap length 0:00:02.60
Peak level 99.3 %
Extraction speed 3.6 X
Track quality 99.8 %
Test CRC AE896DB0
Copy CRC 36146F1F
Track not present in AccurateRip database
Copy OK
None of the tracks are present in the AccurateRip database
No errors occurred
End of status report
==== Log checksum 172E2BFB4F5F34B9788CB450F8D7BF5C7E6BBA16341F1E1DC64702325E1B21BD ====
------------------------------------------------------------
Exact Audio Copy V1.0 beta 2 from 29. April 2011
EAC extraction logfile from 18. May 2012, 15:07
Nordic Trinity / Eternal Echoes
Used drive : TSSTcorpCDDVDW SH-S223L Adapter: 1 ID: 1
Read mode : Secure
Utilize accurate stream : Yes
Defeat audio cache : Yes
Make use of C2 pointers : No
Read offset correction : 6
Overread into Lead-In and Lead-Out : No
Fill up missing offset samples with silence : Yes
Delete leading and trailing silent blocks : No
Null samples used in CRC calculations : Yes
Used interface : Native Win32 interface for Win NT & 2000
Gap handling : Appended to previous track
Used output format : User Defined Encoder
Selected bitrate : 896 kBit/s
Quality : High
Add ID3 tag : No
Command line compressor : C:\Program Files (x86)\Exact Audio Copy\Flac\flac.exe
Additional command line options : -8 -V -T "ARTIST=%artist%" -T "TITLE=%title%" -T "ALBUM=%albumtitle%" -T "DATE=%year%" -T "TRACKNUMBER=%tracknr%" -T "GENRE=%genre%" -T "PERFORMER=%albuminterpret%" -T "COMPOSER=%composer%" %haslyrics%--tag-from-file=LYRIC
TOC of the extracted CD
Track | Start | Length | Start sector | End sector
---------------------------------------------------------
1 | 0:00.00 | 6:50.26 | 0 | 30775
2 | 6:50.26 | 5:51.67 | 30776 | 57167
3 | 12:42.18 | 5:07.00 | 57168 | 80192
4 | 17:49.18 | 4:55.15 | 80193 | 102332
5 | 22:44.33 | 8:06.15 | 102333 | 138797
6 | 30:50.48 | 7:09.21 | 138798 | 170993
7 | 37:59.69 | 7:08.34 | 170994 | 203127
8 | 45:08.28 | 5:18.63 | 203128 | 227040
9 | 50:27.16 | 3:39.64 | 227041 | 243529
Track 2
Filename M:\Music\What 4\Nordic Trinity - Eternal Echoes (2007) [FLAC]\02 - Moon.wav
Pre-gap length 0:00:02.60
Peak level 99.3 %
Extraction speed 4.5 X
Track quality 99.9 %
Test CRC 53B234CF
Copy CRC 8DEE1313
Track not present in AccurateRip database
Copy OK
None of the tracks are present in the AccurateRip database
No errors occurred
End of status report
==== Log checksum 240A3E3B612B88DAFCADB00E311007F7F3BE9FC21AFD7530A8632A6C4AA8D863 ====
------------------------------------------------------------
Exact Audio Copy V1.0 beta 2 from 29. April 2011
EAC extraction logfile from 18. May 2012, 15:10
Nordic Trinity / Eternal Echoes
Used drive : TSSTcorpCDDVDW SH-S223L Adapter: 1 ID: 1
Read mode : Secure
Utilize accurate stream : Yes
Defeat audio cache : Yes
Make use of C2 pointers : No
Read offset correction : 6
Overread into Lead-In and Lead-Out : No
Fill up missing offset samples with silence : Yes
Delete leading and trailing silent blocks : No
Null samples used in CRC calculations : Yes
Used interface : Native Win32 interface for Win NT & 2000
Gap handling : Appended to previous track
Used output format : User Defined Encoder
Selected bitrate : 896 kBit/s
Quality : High
Add ID3 tag : No
Command line compressor : C:\Program Files (x86)\Exact Audio Copy\Flac\flac.exe
Additional command line options : -8 -V -T "ARTIST=%artist%" -T "TITLE=%title%" -T "ALBUM=%albumtitle%" -T "DATE=%year%" -T "TRACKNUMBER=%tracknr%" -T "GENRE=%genre%" -T "PERFORMER=%albuminterpret%" -T "COMPOSER=%composer%" %haslyrics%--tag-from-file=LYRIC
TOC of the extracted CD
Track | Start | Length | Start sector | End sector
---------------------------------------------------------
1 | 0:00.00 | 6:50.26 | 0 | 30775
2 | 6:50.26 | 5:51.67 | 30776 | 57167
3 | 12:42.18 | 5:07.00 | 57168 | 80192
4 | 17:49.18 | 4:55.15 | 80193 | 102332
5 | 22:44.33 | 8:06.15 | 102333 | 138797
6 | 30:50.48 | 7:09.21 | 138798 | 170993
7 | 37:59.69 | 7:08.34 | 170994 | 203127
8 | 45:08.28 | 5:18.63 | 203128 | 227040
9 | 50:27.16 | 3:39.64 | 227041 | 243529
Track 2
Filename M:\Music\What 4\Nordic Trinity - Eternal Echoes (2007) [FLAC]\02 - Moon.wav
Pre-gap length 0:00:02.60
Peak level 99.3 %
Extraction speed 5.2 X
Track quality 99.9 %
Test CRC 1CCC10AB
Copy CRC 8DEE1313
Track not present in AccurateRip database
Copy OK
None of the tracks are present in the AccurateRip database
No errors occurred
End of status report
==== Log checksum 7B6A429FA26539605C5846E06AB93C041305F5F5FDB987FD9DF42C695418429F ====
------------------------------------------------------------
Exact Audio Copy V1.0 beta 2 from 29. April 2011
EAC extraction logfile from 18. May 2012, 15:13
Nordic Trinity / Eternal Echoes
Used drive : TSSTcorpCDDVDW SH-S223L Adapter: 1 ID: 1
Read mode : Secure
Utilize accurate stream : Yes
Defeat audio cache : Yes
Make use of C2 pointers : No
Read offset correction : 6
Overread into Lead-In and Lead-Out : No
Fill up missing offset samples with silence : Yes
Delete leading and trailing silent blocks : No
Null samples used in CRC calculations : Yes
Used interface : Native Win32 interface for Win NT & 2000
Gap handling : Appended to previous track
Used output format : User Defined Encoder
Selected bitrate : 896 kBit/s
Quality : High
Add ID3 tag : No
Command line compressor : C:\Program Files (x86)\Exact Audio Copy\Flac\flac.exe
Additional command line options : -8 -V -T "ARTIST=%artist%" -T "TITLE=%title%" -T "ALBUM=%albumtitle%" -T "DATE=%year%" -T "TRACKNUMBER=%tracknr%" -T "GENRE=%genre%" -T "PERFORMER=%albuminterpret%" -T "COMPOSER=%composer%" %haslyrics%--tag-from-file=LYRIC
TOC of the extracted CD
Track | Start | Length | Start sector | End sector
---------------------------------------------------------
1 | 0:00.00 | 6:50.26 | 0 | 30775
2 | 6:50.26 | 5:51.67 | 30776 | 57167
3 | 12:42.18 | 5:07.00 | 57168 | 80192
4 | 17:49.18 | 4:55.15 | 80193 | 102332
5 | 22:44.33 | 8:06.15 | 102333 | 138797
6 | 30:50.48 | 7:09.21 | 138798 | 170993
7 | 37:59.69 | 7:08.34 | 170994 | 203127
8 | 45:08.28 | 5:18.63 | 203128 | 227040
9 | 50:27.16 | 3:39.64 | 227041 | 243529
Track 2
Filename M:\Music\What 4\Nordic Trinity - Eternal Echoes (2007) [FLAC]\02 - Moon.wav
Pre-gap length 0:00:02.60
Peak level 99.3 %
Extraction speed 4.8 X
Track quality 99.9 %
Test CRC A7366CA7
Copy CRC 1CCC10AB
Track not present in AccurateRip database
Copy OK
None of the tracks are present in the AccurateRip database
No errors occurred
End of status report
==== Log checksum 4EF03C12A83E5D8902F2B86BECC6F93A4CB5135FC2B877B580A17555896DFD4B ====
------------------------------------------------------------
Exact Audio Copy V1.0 beta 2 from 29. April 2011
EAC extraction logfile from 18. May 2012, 15:23
Nordic Trinity / Eternal Echoes
Used drive : TSSTcorpCDDVDW SH-S223L Adapter: 1 ID: 1
Read mode : Secure
Utilize accurate stream : Yes
Defeat audio cache : Yes
Make use of C2 pointers : No
Read offset correction : 6
Overread into Lead-In and Lead-Out : No
Fill up missing offset samples with silence : Yes
Delete leading and trailing silent blocks : No
Null samples used in CRC calculations : Yes
Used interface : Native Win32 interface for Win NT & 2000
Gap handling : Appended to previous track
Used output format : User Defined Encoder
Selected bitrate : 896 kBit/s
Quality : High
Add ID3 tag : No
Command line compressor : C:\Program Files (x86)\Exact Audio Copy\Flac\flac.exe
Additional command line options : -8 -V -T "ARTIST=%artist%" -T "TITLE=%title%" -T "ALBUM=%albumtitle%" -T "DATE=%year%" -T "TRACKNUMBER=%tracknr%" -T "GENRE=%genre%" -T "PERFORMER=%albuminterpret%" -T "COMPOSER=%composer%" %haslyrics%--tag-from-file=LYRIC
TOC of the extracted CD
Track | Start | Length | Start sector | End sector
---------------------------------------------------------
1 | 0:00.00 | 6:50.26 | 0 | 30775
2 | 6:50.26 | 5:51.67 | 30776 | 57167
3 | 12:42.18 | 5:07.00 | 57168 | 80192
4 | 17:49.18 | 4:55.15 | 80193 | 102332
5 | 22:44.33 | 8:06.15 | 102333 | 138797
6 | 30:50.48 | 7:09.21 | 138798 | 170993
7 | 37:59.69 | 7:08.34 | 170994 | 203127
8 | 45:08.28 | 5:18.63 | 203128 | 227040
9 | 50:27.16 | 3:39.64 | 227041 | 243529
Track 2
Filename M:\Music\What 4\Nordic Trinity - Eternal Echoes (2007) [FLAC]\02 - Moon.wav
Pre-gap length 0:00:02.60
Peak level 99.3 %
Extraction speed 4.4 X
Track quality 99.9 %
Test CRC 53B234CF
Copy CRC 1CCC10AB
Track not present in AccurateRip database
Copy OK
None of the tracks are present in the AccurateRip database
No errors occurred
End of status report
==== Log checksum 1159220A023506B8D37E913E1A2B206830947D19EF15510AF326D9D752F8F205 ====
------------------------------------------------------------
Exact Audio Copy V1.0 beta 2 from 29. April 2011
EAC extraction logfile from 18. May 2012, 15:26
Nordic Trinity / Eternal Echoes
Used drive : TSSTcorpCDDVDW SH-S223L Adapter: 1 ID: 1
Read mode : Secure
Utilize accurate stream : Yes
Defeat audio cache : Yes
Make use of C2 pointers : No
Read offset correction : 6
Overread into Lead-In and Lead-Out : No
Fill up missing offset samples with silence : Yes
Delete leading and trailing silent blocks : No
Null samples used in CRC calculations : Yes
Used interface : Native Win32 interface for Win NT & 2000
Gap handling : Appended to previous track
Used output format : User Defined Encoder
Selected bitrate : 896 kBit/s
Quality : High
Add ID3 tag : No
Command line compressor : C:\Program Files (x86)\Exact Audio Copy\Flac\flac.exe
Additional command line options : -8 -V -T "ARTIST=%artist%" -T "TITLE=%title%" -T "ALBUM=%albumtitle%" -T "DATE=%year%" -T "TRACKNUMBER=%tracknr%" -T "GENRE=%genre%" -T "PERFORMER=%albuminterpret%" -T "COMPOSER=%composer%" %haslyrics%--tag-from-file=LYRIC
TOC of the extracted CD
Track | Start | Length | Start sector | End sector
---------------------------------------------------------
1 | 0:00.00 | 6:50.26 | 0 | 30775
2 | 6:50.26 | 5:51.67 | 30776 | 57167
3 | 12:42.18 | 5:07.00 | 57168 | 80192
4 | 17:49.18 | 4:55.15 | 80193 | 102332
5 | 22:44.33 | 8:06.15 | 102333 | 138797
6 | 30:50.48 | 7:09.21 | 138798 | 170993
7 | 37:59.69 | 7:08.34 | 170994 | 203127
8 | 45:08.28 | 5:18.63 | 203128 | 227040
9 | 50:27.16 | 3:39.64 | 227041 | 243529
Track 2
Filename M:\Music\What 4\Nordic Trinity - Eternal Echoes (2007) [FLAC]\02 - Moon.wav
Pre-gap length 0:00:02.60
Peak level 99.3 %
Extraction speed 4.7 X
Track quality 99.9 %
Test CRC 1CCC10AB
Copy CRC 53B234CF
Track not present in AccurateRip database
Copy OK
None of the tracks are present in the AccurateRip database
No errors occurred
End of status report
==== Log checksum 4D4BE6BA3F42F34D49704D85193BC24242CFF769CD4E2953A38E4FC672CCB29B ====
------------------------------------------------------------
Exact Audio Copy V1.0 beta 2 from 29. April 2011
EAC extraction logfile from 18. May 2012, 15:29
Nordic Trinity / Eternal Echoes
Used drive : TSSTcorpCDDVDW SH-S223L Adapter: 1 ID: 1
Read mode : Secure
Utilize accurate stream : Yes
Defeat audio cache : Yes
Make use of C2 pointers : No
Read offset correction : 6
Overread into Lead-In and Lead-Out : No
Fill up missing offset samples with silence : Yes
Delete leading and trailing silent blocks : No
Null samples used in CRC calculations : Yes
Used interface : Native Win32 interface for Win NT & 2000
Gap handling : Appended to previous track
Used output format : User Defined Encoder
Selected bitrate : 896 kBit/s
Quality : High
Add ID3 tag : No
Command line compressor : C:\Program Files (x86)\Exact Audio Copy\Flac\flac.exe
Additional command line options : -8 -V -T "ARTIST=%artist%" -T "TITLE=%title%" -T "ALBUM=%albumtitle%" -T "DATE=%year%" -T "TRACKNUMBER=%tracknr%" -T "GENRE=%genre%" -T "PERFORMER=%albuminterpret%" -T "COMPOSER=%composer%" %haslyrics%--tag-from-file=LYRIC
TOC of the extracted CD
Track | Start | Length | Start sector | End sector
---------------------------------------------------------
1 | 0:00.00 | 6:50.26 | 0 | 30775
2 | 6:50.26 | 5:51.67 | 30776 | 57167
3 | 12:42.18 | 5:07.00 | 57168 | 80192
4 | 17:49.18 | 4:55.15 | 80193 | 102332
5 | 22:44.33 | 8:06.15 | 102333 | 138797
6 | 30:50.48 | 7:09.21 | 138798 | 170993
7 | 37:59.69 | 7:08.34 | 170994 | 203127
8 | 45:08.28 | 5:18.63 | 203128 | 227040
9 | 50:27.16 | 3:39.64 | 227041 | 243529
Track 2
Filename M:\Music\What 4\Nordic Trinity - Eternal Echoes (2007) [FLAC]\02 - Moon.wav
Pre-gap length 0:00:02.60
Peak level 99.3 %
Extraction speed 5.2 X
Track quality 99.9 %
Test CRC 1CCC10AB
Copy CRC F6598289
Track not present in AccurateRip database
Copy OK
None of the tracks are present in the AccurateRip database
No errors occurred
End of status report
==== Log checksum FA7480E389FDD4F646B14D4720AFAD0CCBA059491C880D30770A5098B286CBDA ====
------------------------------------------------------------
Exact Audio Copy V1.0 beta 2 from 29. April 2011
EAC extraction logfile from 18. May 2012, 15:31
Nordic Trinity / Eternal Echoes
Used drive : TSSTcorpCDDVDW SH-S223L Adapter: 1 ID: 1
Read mode : Secure
Utilize accurate stream : Yes
Defeat audio cache : Yes
Make use of C2 pointers : No
Read offset correction : 6
Overread into Lead-In and Lead-Out : No
Fill up missing offset samples with silence : Yes
Delete leading and trailing silent blocks : No
Null samples used in CRC calculations : Yes
Used interface : Native Win32 interface for Win NT & 2000
Gap handling : Appended to previous track
Used output format : User Defined Encoder
Selected bitrate : 896 kBit/s
Quality : High
Add ID3 tag : No
Command line compressor : C:\Program Files (x86)\Exact Audio Copy\Flac\flac.exe
Additional command line options : -8 -V -T "ARTIST=%artist%" -T "TITLE=%title%" -T "ALBUM=%albumtitle%" -T "DATE=%year%" -T "TRACKNUMBER=%tracknr%" -T "GENRE=%genre%" -T "PERFORMER=%albuminterpret%" -T "COMPOSER=%composer%" %haslyrics%--tag-from-file=LYRIC
TOC of the extracted CD
Track | Start | Length | Start sector | End sector
---------------------------------------------------------
1 | 0:00.00 | 6:50.26 | 0 | 30775
2 | 6:50.26 | 5:51.67 | 30776 | 57167
3 | 12:42.18 | 5:07.00 | 57168 | 80192
4 | 17:49.18 | 4:55.15 | 80193 | 102332
5 | 22:44.33 | 8:06.15 | 102333 | 138797
6 | 30:50.48 | 7:09.21 | 138798 | 170993
7 | 37:59.69 | 7:08.34 | 170994 | 203127
8 | 45:08.28 | 5:18.63 | 203128 | 227040
9 | 50:27.16 | 3:39.64 | 227041 | 243529
Track 2
Filename M:\Music\What 4\Nordic Trinity - Eternal Echoes (2007) [FLAC]\02 - Moon.wav
Pre-gap length 0:00:02.60
Peak level 99.3 %
Extraction speed 4.8 X
Track quality 99.9 %
Test CRC 1CCC10AB
Copy CRC 8DEE1313
Track not present in AccurateRip database
Copy OK
None of the tracks are present in the AccurateRip database
No errors occurred
End of status report
==== Log checksum 5F103754711F2768A33924F7FAC44B1C835D6CCE918F624BD4216578B9092207 ====
------------------------------------------------------------
Exact Audio Copy V1.0 beta 2 from 29. April 2011
EAC extraction logfile from 18. May 2012, 15:34
Nordic Trinity / Eternal Echoes
Used drive : TSSTcorpCDDVDW SH-S223L Adapter: 1 ID: 1
Read mode : Secure
Utilize accurate stream : Yes
Defeat audio cache : Yes
Make use of C2 pointers : No
Read offset correction : 6
Overread into Lead-In and Lead-Out : No
Fill up missing offset samples with silence : Yes
Delete leading and trailing silent blocks : No
Null samples used in CRC calculations : Yes
Used interface : Native Win32 interface for Win NT & 2000
Gap handling : Appended to previous track
Used output format : User Defined Encoder
Selected bitrate : 896 kBit/s
Quality : High
Add ID3 tag : No
Command line compressor : C:\Program Files (x86)\Exact Audio Copy\Flac\flac.exe
Additional command line options : -8 -V -T "ARTIST=%artist%" -T "TITLE=%title%" -T "ALBUM=%albumtitle%" -T "DATE=%year%" -T "TRACKNUMBER=%tracknr%" -T "GENRE=%genre%" -T "PERFORMER=%albuminterpret%" -T "COMPOSER=%composer%" %haslyrics%--tag-from-file=LYRIC
TOC of the extracted CD
Track | Start | Length | Start sector | End sector
---------------------------------------------------------
1 | 0:00.00 | 6:50.26 | 0 | 30775
2 | 6:50.26 | 5:51.67 | 30776 | 57167
3 | 12:42.18 | 5:07.00 | 57168 | 80192
4 | 17:49.18 | 4:55.15 | 80193 | 102332
5 | 22:44.33 | 8:06.15 | 102333 | 138797
6 | 30:50.48 | 7:09.21 | 138798 | 170993
7 | 37:59.69 | 7:08.34 | 170994 | 203127
8 | 45:08.28 | 5:18.63 | 203128 | 227040
9 | 50:27.16 | 3:39.64 | 227041 | 243529
Track 2
Filename M:\Music\What 4\Nordic Trinity - Eternal Echoes (2007) [FLAC]\02 - Moon.wav
Pre-gap length 0:00:02.60
Peak level 99.3 %
Extraction speed 4.7 X
Track quality 99.9 %
Test CRC 1CCC10AB
Copy CRC 8DEE1313
Track not present in AccurateRip database
Copy OK
None of the tracks are present in the AccurateRip database
No errors occurred
End of status report
==== Log checksum 9F9CCAA1875800D5291C74AC99CC8533D4B8BD10461FECF223C65F9CEFD7B44C ====
------------------------------------------------------------
Exact Audio Copy V1.0 beta 2 from 29. April 2011
EAC extraction logfile from 18. May 2012, 15:37
Nordic Trinity / Eternal Echoes
Used drive : TSSTcorpCDDVDW SH-S223L Adapter: 1 ID: 1
Read mode : Secure
Utilize accurate stream : Yes
Defeat audio cache : Yes
Make use of C2 pointers : No
Read offset correction : 6
Overread into Lead-In and Lead-Out : No
Fill up missing offset samples with silence : Yes
Delete leading and trailing silent blocks : No
Null samples used in CRC calculations : Yes
Used interface : Native Win32 interface for Win NT & 2000
Gap handling : Appended to previous track
Used output format : User Defined Encoder
Selected bitrate : 896 kBit/s
Quality : High
Add ID3 tag : No
Command line compressor : C:\Program Files (x86)\Exact Audio Copy\Flac\flac.exe
Additional command line options : -8 -V -T "ARTIST=%artist%" -T "TITLE=%title%" -T "ALBUM=%albumtitle%" -T "DATE=%year%" -T "TRACKNUMBER=%tracknr%" -T "GENRE=%genre%" -T "PERFORMER=%albuminterpret%" -T "COMPOSER=%composer%" %haslyrics%--tag-from-file=LYRIC
TOC of the extracted CD
Track | Start | Length | Start sector | End sector
---------------------------------------------------------
1 | 0:00.00 | 6:50.26 | 0 | 30775
2 | 6:50.26 | 5:51.67 | 30776 | 57167
3 | 12:42.18 | 5:07.00 | 57168 | 80192
4 | 17:49.18 | 4:55.15 | 80193 | 102332
5 | 22:44.33 | 8:06.15 | 102333 | 138797
6 | 30:50.48 | 7:09.21 | 138798 | 170993
7 | 37:59.69 | 7:08.34 | 170994 | 203127
8 | 45:08.28 | 5:18.63 | 203128 | 227040
9 | 50:27.16 | 3:39.64 | 227041 | 243529
Track 2
Filename M:\Music\What 4\Nordic Trinity - Eternal Echoes (2007) [FLAC]\02 - Moon.wav
Pre-gap length 0:00:02.60
Peak level 99.3 %
Extraction speed 4.4 X
Track quality 99.9 %
Test CRC 1CCC10AB
Copy CRC 1CCC10AB
Track not present in AccurateRip database
Copy OK
None of the tracks are present in the AccurateRip database
No errors occurred
End of status report
==== Log checksum 224B322241C9CDDBCCC35EF1D2E3A2D5D8D7DA10D58414AD80C87FA606576FE4 ====
 
Содержание индексной карты (.CUE)
REM GENRE "Free Jazz"
REM DATE 2007
REM DISCID 680CAF09
REM COMMENT "ExactAudioCopy v1.0b2"
PERFORMER "Nordic Trinity"
TITLE "Eternal Echoes"
FILE "01 - Desire.wav" WAVE
TRACK 01 AUDIO
TITLE "Desire"
PERFORMER "Nordic Trinity"
ISRC USAFK0700079
INDEX 01 00:00:00
TRACK 02 AUDIO
TITLE "Moon"
PERFORMER "Nordic Trinity"
ISRC USAFK0700080
INDEX 00 06:47:56
FILE "02 - Moon.wav" WAVE
INDEX 01 00:00:00
TRACK 03 AUDIO
TITLE "Owl"
PERFORMER "Nordic Trinity"
ISRC USAFK0700081
INDEX 00 05:48:67
FILE "03 - Owl.wav" WAVE
INDEX 01 00:00:00
TRACK 04 AUDIO
TITLE "Folk Song"
PERFORMER "Nordic Trinity"
ISRC USAFK0700082
INDEX 00 05:04:50
FILE "04 - Folk Song.wav" WAVE
INDEX 01 00:00:00
TRACK 05 AUDIO
TITLE "Paivansade Ja Menninkainen"
PERFORMER "Nordic Trinity"
ISRC USAFK0700083
INDEX 00 04:52:15
FILE "05 - Paivansade Ja Menninkainen.wav" WAVE
INDEX 01 00:00:00
TRACK 06 AUDIO
TITLE "En Liten Visa For Inga"
PERFORMER "Nordic Trinity"
ISRC USAFK0700084
INDEX 00 08:03:00
FILE "06 - En Liten Visa For Inga.wav" WAVE
INDEX 01 00:00:00
TRACK 07 AUDIO
TITLE "One Behind You"
PERFORMER "Nordic Trinity"
ISRC USAFK0700085
INDEX 00 07:05:56
FILE "07 - One Behind You.wav" WAVE
INDEX 01 00:00:00
TRACK 08 AUDIO
TITLE "Alto"
PERFORMER "Nordic Trinity"
ISRC USAFK0700086
INDEX 00 07:05:34
FILE "08 - Alto.wav" WAVE
INDEX 01 00:00:00
TRACK 09 AUDIO
TITLE "Dreaming of You"
PERFORMER "Nordic Trinity"
ISRC USAFK0700087
INDEX 00 05:15:63
FILE "09 - Dreaming of You.wav" WAVE
INDEX 01 00:00:00
Доп. информация: Recorded March 15, 2007 at Rainbow Studio, Oslo, Norway
 
Состав
Drums, Percussion – Klaus Suonsaari
Guitar, Acoustic Guitar – Mikko Iivanainen
Tenor Saxophone, Flute – Juhani Aaltonen
Any questions -> support@pro-jazz.com. По всем вопросам пишите -> support@pro-jazz.com
00:54
173
Нет комментариев. Ваш будет первым!