Поиск

(Free Jazz, Contemporary Jazz, Neo-Bop) [CD] Thomas Savy, Bill Stewart & Scott Colley - French Suite - 2009, FLAC (tracks+.cue), lossless

(Free Jazz, Contemporary Jazz, Neo-Bop) [CD] Thomas Savy, Bill Stewart & Scott Colley - French Suite - 2009, FLAC (tracks+.cue), lossless
Thomas Savy, Bill Stewart & Scott Colley - French Suite
Жанр: Free Jazz, Contemporary Jazz, Neo-Bop
Носитель: CD
Страна-производитель диска (релиза): France
Год издания: 2009
Издатель (лейбл): Plus Loin Music
Номер по каталогу: PL 100
Страна исполнителя (группы): France
Аудиокодек: FLAC (*.flac)
Тип рипа: tracks+.cue
Битрейт аудио: lossless
Продолжительность: 60:11
Источник (релизер): what.cd (dtromp)
Наличие сканов в содержимом раздачи: да
Треклист:
01. Part I - Ouverture (03:38)
02. Part II - Ignition (04:18)
03. Part III - Atlantique Nord (05:26)
04. Part IVa - E & L (05:00)
05. Part V - My Big Apple (07:38)
06. Part VI - Stones (09:57)
07. Part VII - Ballade De Stephen Edward (06:00)
08. Come Sunday (Duke Ellington) (07:23)
09. Part IVb - L & E (03:39)
10. Lonnie's Lament (John Coltrane) (07:03)
 
Лог создания рипа
Exact Audio Copy V1.0 beta 1 from 15. November 2010
EAC extraction logfile from 15. January 2011, 9:26
Thomas Savy, Bill Stewart & Scott Colley / French Suite
Used drive : PLEXTOR DVDR PX-860A Adapter: 0 ID: 0
Read mode : Secure
Utilize accurate stream : Yes
Defeat audio cache : Yes
Make use of C2 pointers : No
Read offset correction : 96
Overread into Lead-In and Lead-Out : No
Fill up missing offset samples with silence : Yes
Delete leading and trailing silent blocks : No
Null samples used in CRC calculations : Yes
Used interface : Native Win32 interface for Win NT & 2000
Gap handling : Appended to previous track
Used output format : User Defined Encoder
Selected bitrate : 1024 kBit/s
Quality : High
Add ID3 tag : No
Command line compressor : C:\Program Files\Exact Audio Copy\flac.exe
Additional command line options : -8 -V -T "ARTIST=%a" -T "TITLE=%t" -T "ALBUM=%g" -T "DATE=%y" -T "TRACKNUMBER=%n" -T "TOTALTRACKS=%x" -T "GENRE=%m" -T "ALBUMARTIST=%v" -T "ALBUM ARTIST=%v" -T "COMMENT=EAC V1.0 beta 1 Secure Mode, Test & Copy, AccurateRip,
TOC of the extracted CD
Track | Start | Length | Start sector | End sector
---------------------------------------------------------
1 | 0:00.00 | 3:37.72 | 0 | 16346
2 | 3:37.72 | 4:18.35 | 16347 | 35731
3 | 7:56.32 | 5:26.07 | 35732 | 60188
4 | 13:22.39 | 5:00.01 | 60189 | 82689
5 | 18:22.40 | 7:40.59 | 82690 | 117248
6 | 26:03.24 | 9:57.22 | 117249 | 162045
7 | 36:00.46 | 6:00.66 | 162046 | 189111
8 | 42:01.37 | 7:23.41 | 189112 | 222377
9 | 49:25.03 | 3:39.58 | 222378 | 238860
10 | 53:04.61 | 7:05.07 | 238861 | 270742
Track 1
Filename S:\DL\Thomas Savy, Bill Stewart & Scott Colley - French Suite (2009) [FLAC]\01 - Part I - Ouverture.wav
Pre-gap length 0:00:02.00
Peak level 100.0 %
Extraction speed 3.8 X
Track quality 100.0 %
Test CRC F80F3359
Copy CRC F80F3359
Accurately ripped (confidence 7) [0253587A]
Copy OK
Track 2
Filename S:\DL\Thomas Savy, Bill Stewart & Scott Colley - French Suite (2009) [FLAC]\02 - Part II - Ignition.wav
Peak level 100.0 %
Extraction speed 4.9 X
Track quality 100.0 %
Test CRC EA45DD9E
Copy CRC EA45DD9E
Accurately ripped (confidence 7) [E42BDCC8]
Copy OK
Track 3
Filename S:\DL\Thomas Savy, Bill Stewart & Scott Colley - French Suite (2009) [FLAC]\03 - Part III - Atlantique Nord.wav
Peak level 100.0 %
Extraction speed 5.1 X
Track quality 99.9 %
Test CRC 30B49142
Copy CRC 30B49142
Accurately ripped (confidence 7) [966FFEA7]
Copy OK
Track 4
Filename S:\DL\Thomas Savy, Bill Stewart & Scott Colley - French Suite (2009) [FLAC]\04 - Part IVa - E & L.wav
Peak level 100.0 %
Extraction speed 6.0 X
Track quality 100.0 %
Test CRC 75F05A83
Copy CRC 75F05A83
Accurately ripped (confidence 7) [4E321696]
Copy OK
Track 5
Filename S:\DL\Thomas Savy, Bill Stewart & Scott Colley - French Suite (2009) [FLAC]\05 - Part V - My Big Apple.wav
Peak level 100.0 %
Extraction speed 6.8 X
Track quality 100.0 %
Test CRC 92E8E298
Copy CRC 92E8E298
Accurately ripped (confidence 7) [649CE144]
Copy OK
Track 6
Filename S:\DL\Thomas Savy, Bill Stewart & Scott Colley - French Suite (2009) [FLAC]\06 - Part VI - Stones.wav
Pre-gap length 0:00:01.60
Peak level 100.0 %
Extraction speed 7.6 X
Track quality 100.0 %
Test CRC AE49BCB3
Copy CRC AE49BCB3
Accurately ripped (confidence 6) [3E9CAE96]
Copy OK
Track 7
Filename S:\DL\Thomas Savy, Bill Stewart & Scott Colley - French Suite (2009) [FLAC]\07 - Part VII - Ballade De Stephen Edward.wav
Peak level 100.0 %
Extraction speed 7.8 X
Track quality 100.0 %
Test CRC 2DC8DD25
Copy CRC 2DC8DD25
Accurately ripped (confidence 6) [1B020476]
Copy OK
Track 8
Filename S:\DL\Thomas Savy, Bill Stewart & Scott Colley - French Suite (2009) [FLAC]\08 - Come Sunday (by Duke Ellington).wav
Peak level 100.0 %
Extraction speed 7.8 X
Track quality 99.9 %
Test CRC CBBA3FE2
Copy CRC CBBA3FE2
Accurately ripped (confidence 6) [5E80DDCE]
Copy OK
Track 9
Filename S:\DL\Thomas Savy, Bill Stewart & Scott Colley - French Suite (2009) [FLAC]\09 - Part IVb - L & E.wav
Peak level 100.0 %
Extraction speed 7.9 X
Track quality 100.0 %
Test CRC CFCA5CC7
Copy CRC CFCA5CC7
Accurately ripped (confidence 7) [D0E824A8]
Copy OK
Track 10
Filename S:\DL\Thomas Savy, Bill Stewart & Scott Colley - French Suite (2009) [FLAC]\10 - Lonnie's Lament (by j. Coltrane).wav
Peak level 100.0 %
Extraction speed 9.0 X
Track quality 100.0 %
Test CRC 2796F46A
Copy CRC 2796F46A
Accurately ripped (confidence 6) [04352ECD]
Copy OK
All tracks accurately ripped
No errors occurred
End of status report
==== Log checksum 43DD2BBCD5CB39DAB68B1375A1598907F87DBC7E5E5D22D344FF65B1223761A1 ====
 
Содержание индексной карты (.CUE)
REM GENRE Jazz
REM DATE 2009
REM DISCID 850E190A
REM COMMENT "ExactAudioCopy v1.0b1"
PERFORMER "Thomas Savy, Bill Stewart & Scott Colley"
TITLE "French Suite"
FILE "01 - Part I - Ouverture.wav" WAVE
TRACK 01 AUDIO
TITLE "Part I - Ouverture"
PERFORMER "Thomas Savy, Bill Stewart & Scott Colley"
INDEX 01 00:00:00
FILE "02 - Part II - Ignition.wav" WAVE
TRACK 02 AUDIO
TITLE "Part II - Ignition"
PERFORMER "Thomas Savy, Bill Stewart & Scott Colley"
INDEX 01 00:00:00
FILE "03 - Part III - Atlantique Nord.wav" WAVE
TRACK 03 AUDIO
TITLE "Part III - Atlantique Nord"
PERFORMER "Thomas Savy, Bill Stewart & Scott Colley"
INDEX 01 00:00:00
FILE "04 - Part IVa - E & L.wav" WAVE
TRACK 04 AUDIO
TITLE "Part IVa - E & L"
PERFORMER "Thomas Savy, Bill Stewart & Scott Colley"
INDEX 01 00:00:00
FILE "05 - Part V - My Big Apple.wav" WAVE
TRACK 05 AUDIO
TITLE "Part V - My Big Apple"
PERFORMER "Thomas Savy, Bill Stewart & Scott Colley"
INDEX 01 00:00:00
TRACK 06 AUDIO
TITLE "Part VI - Stones"
PERFORMER "Thomas Savy, Bill Stewart & Scott Colley"
INDEX 00 07:38:74
FILE "06 - Part VI - Stones.wav" WAVE
INDEX 01 00:00:00
FILE "07 - Part VII - Ballade De Stephen Edward.wav" WAVE
TRACK 07 AUDIO
TITLE "Part VII - Ballade De Stephen Edward"
PERFORMER "Thomas Savy, Bill Stewart & Scott Colley"
INDEX 01 00:00:00
FILE "08 - Come Sunday (by Duke Ellington).wav" WAVE
TRACK 08 AUDIO
TITLE "Come Sunday (by Duke Ellington)"
PERFORMER "Thomas Savy, Bill Stewart & Scott Colley"
INDEX 01 00:00:00
FILE "09 - Part IVb - L & E.wav" WAVE
TRACK 09 AUDIO
TITLE "Part IVb - L & E"
PERFORMER "Thomas Savy, Bill Stewart & Scott Colley"
INDEX 01 00:00:00
FILE "10 - Lonnie's Lament (by J. Coltrane).wav" WAVE
TRACK 10 AUDIO
TITLE "Lonnie's Lament (by J. Coltrane)"
PERFORMER "Thomas Savy, Bill Stewart & Scott Colley"
INDEX 01 00:00:00
 
Лог проверки качества
AUDIOCHECKER v2.0 beta (build 457) - by Dester - opdester@freemail.hu
~~~~~~~~~~~~~~~~~~~~~~~~~~~~~~~~~~
-=== DO NOT EDIT THIS FILE! ===-
Path: ...\Thomas Savy, Bill Stewart & Scott Colley - French Suite (2009) [FLAC]
01 -=- 01 - Part I - Ouverture.flac -=- CDDA (100%)
02 -=- 02 - Part II - Ignition.flac -=- CDDA (100%)
03 -=- 03 - Part III - Atlantique Nord.flac -=- CDDA (100%)
04 -=- 04 - Part IVa - E & L.flac -=- CDDA (100%)
05 -=- 05 - Part V - My Big Apple.flac -=- CDDA (100%)
06 -=- 06 - Part VI - Stones.flac -=- CDDA (100%)
07 -=- 07 - Part VII - Ballade De Stephen Edward.flac -=- CDDA (100%)
08 -=- 08 - Come Sunday (by Duke Ellington).flac -=- CDDA (100%)
09 -=- 09 - Part IVb - L & E.flac -=- CDDA (99%)
10 -=- 10 - Lonnie's Lament (by J. Coltrane).flac -=- CDDA (100%)
Summary 99,90% CDDA
30940372
 
Состав
Thomas Savy - bass clarinet
Scott Colley - bass
Bill Stewart - drums
22:00
359
Нет комментариев. Ваш будет первым!