Вы используете незарегистрированную версию компонента "Вкладки"!

Поиск

(Free Jazz, Contemporary Jazz) Joe Morris Trio - Symbolic Gesture - 1994, FLAC (image+.cue), lossless

(Free Jazz, Contemporary Jazz) Joe Morris Trio - Symbolic Gesture - 1994, FLAC (image+.cue), lossless
Треклист:
Joe Morris Trio / Symbolic Gesture
Жанр: Free Jazz, Contemporary Jazz
Страна-производитель диска: Italy
Год издания: 1994
Издатель (лейбл): Soul Note
Номер по каталогу: 121204-2
Аудиокодек: FLAC (*.flac)
Тип рипа: image+.cue
Битрейт аудио: lossless
Продолжительность: 53:49
Источник (релизер): cd
Наличие сканов в содержимом раздачи: нет
Треклист:
1 Invisible 9:07
2 Lowell's House 14:05
3 Symbolic Gesture 13:34
4 Finite/Margin 9:26
5 The Lookman 7:37
 
Лог создания рипа
Exact Audio Copy V1.0 beta 2 from 29. April 2011
EAC extraction logfile from 6. November 2012, 11:14
Joe Morris Trio / Symbolic Gesture
Used drive : Optiarc DVD RW AD-7170A Adapter: 0 ID: 0
Read mode : Secure
Utilize accurate stream : Yes
Defeat audio cache : Yes
Make use of C2 pointers : No
Read offset correction : 48
Overread into Lead-In and Lead-Out : No
Fill up missing offset samples with silence : Yes
Delete leading and trailing silent blocks : No
Null samples used in CRC calculations : Yes
Used interface : Native Win32 interface for Win NT & 2000
Used output format : User Defined Encoder
Selected bitrate : 320 kBit/s
Quality : High
Add ID3 tag : No
Command line compressor : C:\Program Files\Exact Audio Copy\Flac\flac.exe
Additional command line options : -V -8 -T "Date=%year%" -T "Genre=%genre%" %source%
TOC of the extracted CD
Track | Start | Length | Start sector | End sector
---------------------------------------------------------
1 | 0:00.33 | 9:07.00 | 33 | 41057
2 | 9:07.33 | 14:05.00 | 41058 | 104432
3 | 23:12.33 | 13:34.00 | 104433 | 165482
4 | 36:46.33 | 9:26.50 | 165483 | 207982
5 | 46:13.08 | 7:37.25 | 207983 | 242282
Range status and errors
Selected range
Filename K:\ЕАС\Joe Morris Trio - Symbolic Gesture.wav
Peak level 100.0 %
Extraction speed 1.9 X
Range quality 100.0 %
Test CRC A7A0A89E
Copy CRC A7A0A89E
Copy OK
No errors occurred
AccurateRip summary
Track 1 not present in database
Track 2 not present in database
Track 3 not present in database
Track 4 not present in database
Track 5 not present in database
None of the tracks are present in the AccurateRip database
End of status report
==== Log checksum 27C9495422B6F9E4E459F282FEBC3212D7D15A990B586815B27CFA61F1D6B9F8 ====
 
Содержание индексной карты (.CUE)
REM GENRE "Experimental Jazz"
REM DATE 1994
REM DISCID 460C9E05
REM COMMENT "ExactAudioCopy v1.0b2"
PERFORMER "Joe Morris Trio"
TITLE "Symbolic Gesture"
FILE "Joe Morris Trio - Symbolic Gesture.flac" WAVE
TRACK 01 AUDIO
TITLE "Invisible"
PERFORMER "Joe Morris Trio"
INDEX 00 00:00:00
INDEX 01 00:00:33
TRACK 02 AUDIO
TITLE "Lowell's House"
PERFORMER "Joe Morris Trio"
INDEX 01 09:07:33
TRACK 03 AUDIO
TITLE "Symbolic Gesture"
PERFORMER "Joe Morris Trio"
INDEX 01 23:12:33
TRACK 04 AUDIO
TITLE "Finite/Margin"
PERFORMER "Joe Morris Trio"
INDEX 01 36:46:33
TRACK 05 AUDIO
TITLE "The Lookman"
PERFORMER "Joe Morris Trio"
INDEX 01 46:13:08
Доп. информация: Recorded on 12 June 1993 at The Outpost, Stoughton, MA.
 
Состав
Bass [Acoustic] – Nate McBride
Drums – Curt Newton
Guitar, Producer – Joe Morris
Any questions -> support@pro-jazz.com. По всем вопросам пишите -> support@pro-jazz.com
05:08
148
Нет комментариев. Ваш будет первым!