Поиск

(Free Jazz, Contemporary Jazz) Hamiet Bluiett, D.D. Jackson, Kahil El'Zabar - The Calling - 2001, FLAC (tracks+.cue), lossless

(Free Jazz, Contemporary Jazz) Hamiet Bluiett, D.D. Jackson, Kahil El'Zabar - The Calling - 2001, FLAC (tracks+.cue), lossless
Треклист:
Bluiett, Jackson, El'Zabar / The Calling
Жанр: Free Jazz, Contemporary Jazz
Страна-производитель диска: Canada
Год издания: 2001
Издатель (лейбл): Justin Time
Номер по каталогу: JUST 162-2
Аудиокодек: FLAC (*.flac)
Тип рипа: tracks+.cue
Битрейт аудио: lossless
Продолжительность: 59:50
Источник (релизер): Max Monteiro
Наличие сканов в содержимом раздачи: да
Треклист:
1. Open My Eyes (Kahil El’Zabar) 8:28
2. Sai-Wah (D.D. Jackson) 8:26
3. When the Elephant Walks (Kahil El’Zabar) 6:32
4. Blues for the People (Jothan Callins) 4:48
5. Wake Up and Dream (D.D. Jackson) 613
6. Ask and You Shall Find (Hamiet Bluiett / D.D. Jackson / Kahil El’Zabar) 3:15
7. Black Danube [a.k.a. The Calling] (Hamiet Bluiett) 5:22
8. We Are (Kahil El’Zabar) 4:52
9. Odd Pocket (Kahil El’Zabar) 6:34
10. Blues Grind (D.D. Jackson) 5:21
 
Лог создания рипа
Exact Audio Copy V1.0 beta 3 from 29. August 2011
EAC extraction logfile from 21. February 2013, 16:01
Bluiett, Jackson, El'Zabar / The Calling
Used drive : SlimtypeeNAU508 5 Adapter: 1 ID: 0
Read mode : Secure
Utilize accurate stream : Yes
Defeat audio cache : Yes
Make use of C2 pointers : No
Read offset correction : 6
Overread into Lead-In and Lead-Out : No
Fill up missing offset samples with silence : Yes
Delete leading and trailing silent blocks : No
Null samples used in CRC calculations : Yes
Used interface : Native Win32 interface for Win NT & 2000
Gap handling : Appended to previous track
Used output format : User Defined Encoder
Selected bitrate : 768 kBit/s
Quality : High
Add ID3 tag : No
Command line compressor : C:\Program Files (x86)\Exact Audio Copy\Flac\flac.exe
Additional command line options : -8 -V -T "ARTIST=%artist%" -T "TITLE=%title%" -T "ALBUM=%albumtitle%" -T "DATE=%year%" -T "TRACKNUMBER=%tracknr%" -T "GENRE=%genre%" -T "PERFORMER=%albuminterpret%" -T "COMPOSER=%composer%" %haslyrics%--tag-from-file=LYRICS="%lyricsfile%"%haslyrics% -T "ALBUMARTIST=%albumartist%" -T "DISCNUMBER=%cdnumber%" -T "TOTALDISCS=%totalcds%" -T "TOTALTRACKS=%numtracks%" -T "COMMENT=%comment%" %source% -o %dest%
TOC of the extracted CD
Track | Start | Length | Start sector | End sector
---------------------------------------------------------
1 | 0:00.00 | 8:28.07 | 0 | 38106
2 | 8:28.07 | 8:25.55 | 38107 | 76036
3 | 16:53.62 | 6:31.50 | 76037 | 105411
4 | 23:25.37 | 4:47.53 | 105412 | 126989
5 | 28:13.15 | 6:12.40 | 126990 | 154929
6 | 34:25.55 | 3:15.27 | 154930 | 169581
7 | 37:41.07 | 5:21.71 | 169582 | 193727
8 | 43:03.03 | 4:52.26 | 193728 | 215653
9 | 47:55.29 | 6:33.52 | 215654 | 245180
10 | 54:29.06 | 5:21.24 | 245181 | 269279
Track 1
Filename C:\EAC rips\01 - Open My Eyes.wav
Pre-gap length 0:00:02.00
Peak level 99.8 %
Extraction speed 1.2 X
Track quality 100.0 %
Test CRC 63C62C2A
Copy CRC 63C62C2A
Accurately ripped (confidence 5) [B269F6B7] (AR v1)
Copy OK
Track 2
Filename C:\EAC rips\02 - Sai-Wah.wav
Pre-gap length 0:00:02.51
Peak level 99.8 %
Extraction speed 1.4 X
Track quality 100.0 %
Test CRC 43FC2202
Copy CRC 43FC2202
Accurately ripped (confidence 5) [4DE8328C] (AR v1)
Copy OK
Track 3
Filename C:\EAC rips\03 - When the Elephant Walks.wav
Pre-gap length 0:00:03.27
Peak level 99.8 %
Extraction speed 1.6 X
Track quality 100.0 %
Test CRC 2614DD50
Copy CRC 2614DD50
Accurately ripped (confidence 5) [E7A38E92] (AR v1)
Copy OK
Track 4
Filename C:\EAC rips\04 - Blues for the People.wav
Pre-gap length 0:00:03.71
Peak level 99.8 %
Extraction speed 1.6 X
Track quality 100.0 %
Test CRC 2EDDD855
Copy CRC 2EDDD855
Accurately ripped (confidence 5) [21DA1422] (AR v1)
Copy OK
Track 5
Filename C:\EAC rips\05 - Wake Up and Dream.wav
Pre-gap length 0:00:01.73
Peak level 99.8 %
Extraction speed 1.8 X
Track quality 100.0 %
Test CRC D340D223
Copy CRC D340D223
Accurately ripped (confidence 5) [63103CA8] (AR v1)
Copy OK
Track 6
Filename C:\EAC rips\06 - Ask and You Shall Find.wav
Pre-gap length 0:00:03.24
Peak level 93.4 %
Extraction speed 1.7 X
Track quality 100.0 %
Test CRC A1C08770
Copy CRC A1C08770
Accurately ripped (confidence 5) [87BDC05B] (AR v1)
Copy OK
Track 7
Filename C:\EAC rips\07 - Black Danube [a.k.a. The Calling].wav
Pre-gap length 0:00:03.60
Peak level 99.8 %
Extraction speed 1.9 X
Track quality 100.0 %
Test CRC A1202660
Copy CRC A1202660
Accurately ripped (confidence 5) [67520037] (AR v1)
Copy OK
Track 8
Filename C:\EAC rips\08 - We Are.wav
Pre-gap length 0:00:02.70
Peak level 99.7 %
Extraction speed 2.0 X
Track quality 100.0 %
Test CRC B0BFE549
Copy CRC B0BFE549
Accurately ripped (confidence 5) [3BBD5436] (AR v1)
Copy OK
Track 9
Filename C:\EAC rips\09 - Odd Pocket.wav
Pre-gap length 0:00:02.00
Peak level 99.8 %
Extraction speed 2.2 X
Track quality 100.0 %
Test CRC 0DEF3212
Copy CRC 0DEF3212
Accurately ripped (confidence 5) [514532DC] (AR v1)
Copy OK
Track 10
Filename C:\EAC rips\10 - Blues Grind.wav
Pre-gap length 0:00:02.00
Peak level 99.8 %
Extraction speed 2.2 X
Track quality 100.0 %
Test CRC 036586E4
Copy CRC 036586E4
Accurately ripped (confidence 4) [64950F52] (AR v1)
Copy OK
All tracks accurately ripped
No errors occurred
End of status report
---- CUETools DB Plugin V2.1.4
[CTDB TOCID: 61KjIJ0LFaoRhC7ng5jQcTi.doo-] found
Submit result: 61KjIJ0LFaoRhC7ng5jQcTi.doo- has been confirmed
Track | CTDB Status
1 | (2/2) Accurately ripped
2 | (2/2) Accurately ripped
3 | (2/2) Accurately ripped
4 | (2/2) Accurately ripped
5 | (2/2) Accurately ripped
6 | (2/2) Accurately ripped
7 | (2/2) Accurately ripped
8 | (2/2) Accurately ripped
9 | (2/2) Accurately ripped
10 | (2/2) Accurately ripped
==== Log checksum D014F0DB08DDF5A78ABA67ED8F6BA745D5902CF8CB46FBC8EA8117B1EBC3FAEB ====
 
Содержание индексной карты (.CUE)
REM GENRE Jazz
REM DATE 2001
REM DISCID 850E060A
REM COMMENT "ExactAudioCopy v1.0b3"
CATALOG 0006894401622
PERFORMER "Bluiett, Jackson, El'Zabar"
TITLE "The Calling"
FILE "01 - Open My Eyes.wav" WAVE
TRACK 01 AUDIO
TITLE "Open My Eyes"
PERFORMER "Bluiett, Jackson, El'Zabar"
ISRC CAJ220112310
INDEX 01 00:00:00
TRACK 02 AUDIO
TITLE "Sai-Wah"
PERFORMER "Bluiett, Jackson, El'Zabar"
ISRC CAJ220112320
INDEX 00 08:25:31
FILE "02 - Sai-Wah.wav" WAVE
INDEX 01 00:00:00
TRACK 03 AUDIO
TITLE "When the Elephant Walks"
PERFORMER "Bluiett, Jackson, El'Zabar"
ISRC CAJ220112340
INDEX 00 08:22:28
FILE "03 - When the Elephant Walks.wav" WAVE
INDEX 01 00:00:00
TRACK 04 AUDIO
TITLE "Blues for the People"
PERFORMER "Bluiett, Jackson, El'Zabar"
ISRC CAJ220112400
INDEX 00 06:27:54
FILE "04 - Blues for the People.wav" WAVE
INDEX 01 00:00:00
TRACK 05 AUDIO
TITLE "Wake Up and Dream"
PERFORMER "Bluiett, Jackson, El'Zabar"
ISRC CAJ220112350
INDEX 00 04:45:55
FILE "05 - Wake Up and Dream.wav" WAVE
INDEX 01 00:00:00
TRACK 06 AUDIO
TITLE "Ask and You Shall Find"
PERFORMER "Bluiett, Jackson, El'Zabar"
ISRC CAJ220112360
INDEX 00 06:09:16
FILE "06 - Ask and You Shall Find.wav" WAVE
INDEX 01 00:00:00
TRACK 07 AUDIO
TITLE "Black Danube [a.k.a. The Calling]"
PERFORMER "Bluiett, Jackson, El'Zabar"
ISRC CAJ220112370
INDEX 00 03:11:42
FILE "07 - Black Danube [a.k.a. The Calling].wav" WAVE
INDEX 01 00:00:00
TRACK 08 AUDIO
TITLE "We Are"
PERFORMER "Bluiett, Jackson, El'Zabar"
ISRC CAJ220112390
INDEX 00 05:19:01
FILE "08 - We Are.wav" WAVE
INDEX 01 00:00:00
TRACK 09 AUDIO
TITLE "Odd Pocket"
PERFORMER "Bluiett, Jackson, El'Zabar"
ISRC CAJ220112380
INDEX 00 04:50:26
FILE "09 - Odd Pocket.wav" WAVE
INDEX 01 00:00:00
TRACK 10 AUDIO
TITLE "Blues Grind"
PERFORMER "Bluiett, Jackson, El'Zabar"
ISRC CAJ220112330
INDEX 00 06:31:52
FILE "10 - Blues Grind.wav" WAVE
INDEX 01 00:00:00
Доп. информация: All material recorded live with no overdubs. Recorded at Studio Victor, Montreal, Canada on October 27 and 28, 2000.
 
Состав
Bluiett – Baritone Saxophone, Wooden Flute, Contra-Alto Clarinet
D.D. Jackson – Acoustic Piano, Organ, Bass Synth, Keys
Kahil El’Zabar – All Drums, Percussion, Bells, Kalimba and Vocals
08:21
620
Нет комментариев. Ваш будет первым!