Вы используете незарегистрированную версию компонента "Вкладки"!

Поиск

(Free Jazz, Contemporary Jazz, Free Improvisation) [CD] Joe McPhee Po Music (Andre Jaume, Urs Leimgruber, Jean-Charles Capon, Pierre-Yves Sorin, Fritz Hauser, Raymond Boni...) - Old Eyes & Mysteries - 1992, FLAC (tracks+.cue), lossless

(Free Jazz, Contemporary Jazz, Free Improvisation) [CD] Joe McPhee Po Music (Andre Jaume, Urs Leimgruber, Jean-Charles Capon, Pierre-Yves Sorin, Fritz Hauser, Raymond Boni...) - Old Eyes & Mysteries - 1992, FLAC (tracks+.cue), lossless
Треклист:
Joe McPhee Po Music / Old Eyes & Mysteries
Жанр: Free Jazz, Contemporary Jazz, Free Improvisation
Носитель: CD
Страна-производитель диска (релиза): Switzerland
Год издания: 1992
Издатель (лейбл): hat ART
Номер по каталогу: CD 6047
Аудиокодек: FLAC (*.flac)
Тип рипа: tracks+.cue
Битрейт аудио: lossless
Продолжительность: 74:43
Источник (релизер): whatcd (template)
Наличие сканов в содержимом раздачи: нет
Треклист:
1 Eroc Tinu 4:02
Land Dance
2 Land Dance a 3:02
3 Land Dance b 3:16
4 Land Dance c 3:12
5 Land Dance d 3:22
-
6 Old Eyes 8:55
7 Django 14:28
8 No Line 3:06
9 Strings 7:08
Women's Mysteries
10 Woman Of Darkness 8:56
11 Woman Of Passion 4:41
12 Woman Of Lotus 5:02
13 Woman Of Skies 5:28
 
Лог создания рипа
X Lossless Decoder version 20141129a (148.2)
XLD extraction logfile from 2015-10-18 20:32:19 -0500
Joe McPhee Po Music / Old Eyes & Mysteries
Used drive : MATSHITA DVD-R UJ-8A8 (revision HB14)
Media type : Pressed CD
Ripper mode : XLD Secure Ripper
Disable audio cache : OK for the drive with a cache less than 1375KiB
Make use of C2 pointers : NO
Read offset correction : 102
Max retry count : 100
Gap status : Analyzed, Appended (except HTOA)
TOC of the extracted CD
Track | Start | Length | Start sector | End sector
---------------------------------------------------------
1 | 00:00:00 | 04:02:62 | 0 | 18211
2 | 04:02:62 | 03:02:00 | 18212 | 31861
3 | 07:04:62 | 03:16:25 | 31862 | 46586
4 | 10:21:12 | 03:11:50 | 46587 | 60961
5 | 13:32:62 | 03:22:25 | 60962 | 76136
6 | 16:55:12 | 08:54:50 | 76137 | 116236
7 | 25:49:62 | 14:28:00 | 116237 | 181336
8 | 40:17:62 | 03:05:50 | 181337 | 195261
9 | 43:23:37 | 07:12:25 | 195262 | 227686
10 | 50:35:62 | 08:56:00 | 227687 | 267886
11 | 59:31:62 | 04:41:00 | 267887 | 288961
12 | 64:12:62 | 05:02:00 | 288962 | 311611
13 | 69:14:62 | 05:28:13 | 311612 | 336224
AccurateRip Summary (DiscID: 0020f179-015819c5-a511830d)
Track 01 : OK (v1, confidence 1/1)
Track 02 : OK (v1, confidence 1/1)
Track 03 : OK (v1, confidence 1/1)
Track 04 : OK (v1, confidence 1/1)
Track 05 : OK (v1, confidence 1/1)
Track 06 : OK (v1, confidence 1/1)
Track 07 : OK (v1, confidence 1/1)
Track 08 : OK (v1, confidence 1/1)
Track 09 : OK (v1, confidence 1/1)
Track 10 : OK (v1+v2, confidence 2/2)
Track 11 : OK (v1+v2, confidence 2/2)
Track 12 : OK (v1+v2, confidence 2/2)
Track 13 : OK (v1+v2, confidence 2/2)
->All tracks accurately ripped.
All Tracks
Album gain : -1.79 dB
Peak : 0.991028
Statistics
Read error : 0
Jitter error (maybe fixed) : 0
Retry sector count : 0
Damaged sector count : 0
Track 01
Filename : /Users/jonahMBP/Music/XLD rips/Joe McPhee Po Music - Old Eyes & Mysteries (1992) [FLAC]/01 Eroc Tinu.flac
Pre-gap length : 00:02:00
Track gain : -3.86 dB
Peak : 0.991028
CRC32 hash (test run) : 05A92FF5
CRC32 hash : 05A92FF5
CRC32 hash (skip zero) : 68AD34A7
AccurateRip v1 signature : BB5A5836
AccurateRip v2 signature : B9D4BDC1
->Accurately ripped (v1, confidence 1/1)
Statistics
Read error : 0
Jitter error (maybe fixed) : 0
Retry sector count : 0
Damaged sector count : 0
Track 02
Filename : /Users/jonahMBP/Music/XLD rips/Joe McPhee Po Music - Old Eyes & Mysteries (1992) [FLAC]/02 Land Dance A.flac
Track gain : -0.26 dB
Peak : 0.831512
CRC32 hash (test run) : CDB1B8A9
CRC32 hash : CDB1B8A9
CRC32 hash (skip zero) : A948BB47
AccurateRip v1 signature : CE3608B7
AccurateRip v2 signature : D7458942
->Accurately ripped (v1, confidence 1/1)
Statistics
Read error : 0
Jitter error (maybe fixed) : 0
Retry sector count : 0
Damaged sector count : 0
Track 03
Filename : /Users/jonahMBP/Music/XLD rips/Joe McPhee Po Music - Old Eyes & Mysteries (1992) [FLAC]/03 Land Dance B.flac
Track gain : 2.34 dB
Peak : 0.622528
CRC32 hash (test run) : 5664D9C8
CRC32 hash : 5664D9C8
CRC32 hash (skip zero) : 278D7722
AccurateRip v1 signature : CB122510
AccurateRip v2 signature : E5FD57AA
->Accurately ripped (v1, confidence 1/1)
Statistics
Read error : 0
Jitter error (maybe fixed) : 0
Retry sector count : 0
Damaged sector count : 0
Track 04
Filename : /Users/jonahMBP/Music/XLD rips/Joe McPhee Po Music - Old Eyes & Mysteries (1992) [FLAC]/04 Land Dance C.flac
Track gain : 0.12 dB
Peak : 0.946075
CRC32 hash (test run) : 8A563886
CRC32 hash : 8A563886
CRC32 hash (skip zero) : 4F729689
AccurateRip v1 signature : 0E025352
AccurateRip v2 signature : 310A1EF5
->Accurately ripped (v1, confidence 1/1)
Statistics
Read error : 0
Jitter error (maybe fixed) : 0
Retry sector count : 0
Damaged sector count : 0
Track 05
Filename : /Users/jonahMBP/Music/XLD rips/Joe McPhee Po Music - Old Eyes & Mysteries (1992) [FLAC]/05 Land Dance D.flac
Track gain : 0.91 dB
Peak : 0.650757
CRC32 hash (test run) : C410EE9C
CRC32 hash : C410EE9C
CRC32 hash (skip zero) : B92FA801
AccurateRip v1 signature : 34BD245E
AccurateRip v2 signature : 0B61FE5A
->Accurately ripped (v1, confidence 1/1)
Statistics
Read error : 0
Jitter error (maybe fixed) : 0
Retry sector count : 0
Damaged sector count : 0
Track 06
Filename : /Users/jonahMBP/Music/XLD rips/Joe McPhee Po Music - Old Eyes & Mysteries (1992) [FLAC]/06 Old Eyes.flac
Track gain : -4.16 dB
Peak : 0.889465
CRC32 hash (test run) : 36DBD224
CRC32 hash : 36DBD224
CRC32 hash (skip zero) : EB2C8DBC
AccurateRip v1 signature : 48AA5A85
AccurateRip v2 signature : 101CC000
->Accurately ripped (v1, confidence 1/1)
Statistics
Read error : 0
Jitter error (maybe fixed) : 0
Retry sector count : 0
Damaged sector count : 0
Track 07
Filename : /Users/jonahMBP/Music/XLD rips/Joe McPhee Po Music - Old Eyes & Mysteries (1992) [FLAC]/07 Django.flac
Track gain : 0.77 dB
Peak : 0.643555
CRC32 hash (test run) : AB8139EB
CRC32 hash : AB8139EB
CRC32 hash (skip zero) : CF2E8335
AccurateRip v1 signature : 4A3E7703
AccurateRip v2 signature : 43BBA471
->Accurately ripped (v1, confidence 1/1)
Statistics
Read error : 0
Jitter error (maybe fixed) : 0
Retry sector count : 0
Damaged sector count : 0
Track 08
Filename : /Users/jonahMBP/Music/XLD rips/Joe McPhee Po Music - Old Eyes & Mysteries (1992) [FLAC]/08 No Line.flac
Track gain : 1.06 dB
Peak : 0.697937
CRC32 hash (test run) : 169FE8CC
CRC32 hash : 169FE8CC
CRC32 hash (skip zero) : 1031C72E
AccurateRip v1 signature : 8417335A
AccurateRip v2 signature : A5787614
->Accurately ripped (v1, confidence 1/1)
Statistics
Read error : 0
Jitter error (maybe fixed) : 0
Retry sector count : 0
Damaged sector count : 0
Track 09
Filename : /Users/jonahMBP/Music/XLD rips/Joe McPhee Po Music - Old Eyes & Mysteries (1992) [FLAC]/09 Strings.flac
Track gain : 1.20 dB
Peak : 0.793121
CRC32 hash (test run) : BEDFD6CF
CRC32 hash : BEDFD6CF
CRC32 hash (skip zero) : 6318FC60
AccurateRip v1 signature : 7133E16D
AccurateRip v2 signature : E69149C4
->Accurately ripped (v1, confidence 1/1)
Statistics
Read error : 0
Jitter error (maybe fixed) : 0
Retry sector count : 0
Damaged sector count : 0
Track 10
Filename : /Users/jonahMBP/Music/XLD rips/Joe McPhee Po Music - Old Eyes & Mysteries (1992) [FLAC]/10 Women's Mysteries - Woman Of Darkness.flac
Pre-gap length : 00:03:62
Track gain : 4.29 dB
Peak : 0.953766
CRC32 hash (test run) : 9D626C80
CRC32 hash : 9D626C80
CRC32 hash (skip zero) : 6A48B426
AccurateRip v1 signature : 78565F87
AccurateRip v2 signature : 8FF15119
->Accurately ripped (v1+v2, confidence 1+1/2)
Statistics
Read error : 0
Jitter error (maybe fixed) : 0
Retry sector count : 0
Damaged sector count : 0
Track 11
Filename : /Users/jonahMBP/Music/XLD rips/Joe McPhee Po Music - Old Eyes & Mysteries (1992) [FLAC]/11 Women's Mysteries - Woman Of Passion.flac
Track gain : -3.43 dB
Peak : 0.987640
CRC32 hash (test run) : 48454915
CRC32 hash : 48454915
CRC32 hash (skip zero) : 535A5485
AccurateRip v1 signature : FC5CF9F7
AccurateRip v2 signature : F892CC2C
->Accurately ripped (v1+v2, confidence 1+1/2)
Statistics
Read error : 0
Jitter error (maybe fixed) : 0
Retry sector count : 0
Damaged sector count : 0
Track 12
Filename : /Users/jonahMBP/Music/XLD rips/Joe McPhee Po Music - Old Eyes & Mysteries (1992) [FLAC]/12 Women's Mysteries - Woman Of Lotus.flac
Track gain : 3.42 dB
Peak : 0.701965
CRC32 hash (test run) : A7C3908E
CRC32 hash : A7C3908E
CRC32 hash (skip zero) : 0D3537D3
AccurateRip v1 signature : 41E7E054
AccurateRip v2 signature : 11899163
->Accurately ripped (v1+v2, confidence 1+1/2)
Statistics
Read error : 0
Jitter error (maybe fixed) : 0
Retry sector count : 0
Damaged sector count : 0
Track 13
Filename : /Users/jonahMBP/Music/XLD rips/Joe McPhee Po Music - Old Eyes & Mysteries (1992) [FLAC]/13 Women's Mysteries - Woman Of Skies.flac
Track gain : -2.41 dB
Peak : 0.973694
CRC32 hash (test run) : 238C130D
CRC32 hash : 238C130D
CRC32 hash (skip zero) : 4C2C9F74
AccurateRip v1 signature : E551A661
AccurateRip v2 signature : 45B76029
->Accurately ripped (v1+v2, confidence 1+1/2)
Statistics
Read error : 0
Jitter error (maybe fixed) : 0
Retry sector count : 0
Damaged sector count : 0
No errors occurred
End of status report
-----BEGIN XLD SIGNATURE-----
KG55S_Nk2CTEFGa4eSC9_V75gKI3LmlrliTIStsQH9JdH0HxhVVsXtvhEW2ynk.2FUqvYx6tI3FHthr_lYkQGx32tciCuBavSN_CTFe
-----END XLD SIGNATURE-----
 
Содержание индексной карты (.CUE)
TITLE "Old Eyes & Mysteries"
PERFORMER "Joe McPhee Po Music"
REM GENRE "Jazz"
REM DATE "1992"
REM DISCID A511830D
REM REPLAYGAIN_ALBUM_GAIN -1.79 dB
REM REPLAYGAIN_ALBUM_PEAK 0.991028
FILE "01 Eroc Tinu.flac" WAVE
TRACK 01 AUDIO
TITLE "Eroc Tinu"
REM REPLAYGAIN_TRACK_GAIN -3.86 dB
REM REPLAYGAIN_TRACK_PEAK 0.991028
INDEX 01 00:00:00
FILE "02 Land Dance A.flac" WAVE
TRACK 02 AUDIO
TITLE "Land Dance A"
REM REPLAYGAIN_TRACK_GAIN -0.26 dB
REM REPLAYGAIN_TRACK_PEAK 0.831512
INDEX 01 00:00:00
FILE "03 Land Dance B.flac" WAVE
TRACK 03 AUDIO
TITLE "Land Dance B"
REM REPLAYGAIN_TRACK_GAIN 2.34 dB
REM REPLAYGAIN_TRACK_PEAK 0.622528
INDEX 01 00:00:00
FILE "04 Land Dance C.flac" WAVE
TRACK 04 AUDIO
TITLE "Land Dance C"
REM REPLAYGAIN_TRACK_GAIN 0.12 dB
REM REPLAYGAIN_TRACK_PEAK 0.946075
INDEX 01 00:00:00
FILE "05 Land Dance D.flac" WAVE
TRACK 05 AUDIO
TITLE "Land Dance D"
REM REPLAYGAIN_TRACK_GAIN 0.91 dB
REM REPLAYGAIN_TRACK_PEAK 0.650757
INDEX 01 00:00:00
FILE "06 Old Eyes.flac" WAVE
TRACK 06 AUDIO
TITLE "Old Eyes"
REM REPLAYGAIN_TRACK_GAIN -4.16 dB
REM REPLAYGAIN_TRACK_PEAK 0.889465
INDEX 01 00:00:00
FILE "07 Django.flac" WAVE
TRACK 07 AUDIO
TITLE "Django"
REM REPLAYGAIN_TRACK_GAIN 0.77 dB
REM REPLAYGAIN_TRACK_PEAK 0.643555
INDEX 01 00:00:00
FILE "08 No Line.flac" WAVE
TRACK 08 AUDIO
TITLE "No Line"
REM REPLAYGAIN_TRACK_GAIN 1.06 dB
REM REPLAYGAIN_TRACK_PEAK 0.697937
INDEX 01 00:00:00
FILE "09 Strings.flac" WAVE
TRACK 09 AUDIO
TITLE "Strings"
REM REPLAYGAIN_TRACK_GAIN 1.20 dB
REM REPLAYGAIN_TRACK_PEAK 0.793121
INDEX 01 00:00:00
TRACK 10 AUDIO
TITLE "Women's Mysteries - Woman Of Darkness"
REM REPLAYGAIN_TRACK_GAIN 4.29 dB
REM REPLAYGAIN_TRACK_PEAK 0.953766
INDEX 00 07:08:38
FILE "10 Women's Mysteries - Woman Of Darkness.flac" WAVE
INDEX 01 00:00:00
FILE "11 Women's Mysteries - Woman Of Passion.flac" WAVE
TRACK 11 AUDIO
TITLE "Women's Mysteries - Woman Of Passion"
REM REPLAYGAIN_TRACK_GAIN -3.43 dB
REM REPLAYGAIN_TRACK_PEAK 0.987640
INDEX 01 00:00:00
FILE "12 Women's Mysteries - Woman Of Lotus.flac" WAVE
TRACK 12 AUDIO
TITLE "Women's Mysteries - Woman Of Lotus"
REM REPLAYGAIN_TRACK_GAIN 3.42 dB
REM REPLAYGAIN_TRACK_PEAK 0.701965
INDEX 01 00:00:00
FILE "13 Women's Mysteries - Woman Of Skies.flac" WAVE
TRACK 13 AUDIO
TITLE "Women's Mysteries - Woman Of Skies"
REM REPLAYGAIN_TRACK_GAIN -2.41 dB
REM REPLAYGAIN_TRACK_PEAK 0.973694
INDEX 01 00:00:00
Доп. информация: Tracks 1 to 9 recorded on May 30, 1979 in Paris
Tracks 10 to 13 recorded on January 9, 1990 at Studio 2 Radio DRS, Zurich/Switzerland
 
Состав
Alto Saxophone, Tenor Saxophone – Joe McPhee (tracks: 1 to 9)
Bass Clarinet, Tenor Saxophone – André Jaume (tracks: 1 to 9)
Cello – Jean-Charles Capon (tracks: 1 to 9)
Double Bass – Pierre-Yves Sorin (tracks: 1 to 9)
Drums, Percussion – Fritz Hauser
Flugelhorn, Trumpet [Pocket], Liner Notes – Joe McPhee (tracks: 10 to 13)
Guitar [Guitars] – Raymond Boni (tracks: 1 to 9), Steve Gnitka (tracks: 1 to 9)
Piano, Drums – Milo Fine (tracks: 1 to 9)
Soprano Saxophone, Tenor Saxophone – Urs Leimgruber (tracks: 10 to 13)
По всем вопросам пишите личное сообщение пользователю M0p94ok.
16:27
176
Нет комментариев. Ваш будет первым!