Вы используете незарегистрированную версию компонента "Вкладки"!

Поиск

(Free Jazz, Contemporary Jazz) [CD] Simon Nabatov (Nils Wogram, Matthias Schubert, Ernst Reijseger, Tom Rainey) - Roundup - 2010, FLAC (image+.cue), lossless

(Free Jazz, Contemporary Jazz) [CD] Simon Nabatov (Nils Wogram, Matthias Schubert, Ernst Reijseger, Tom Rainey) - Roundup - 2010, FLAC (image+.cue), lossless
Треклист:
Simon Nabatov / Roundup
Жанр: Free Jazz, Contemporary Jazz
Носитель: CD
Страна-производитель диска: UK
Год издания: 2010
Издатель (лейбл): Leo Records
Номер по каталогу: CD LR 586
Аудиокодек: FLAC (*.flac)
Тип рипа: image+.cue
Битрейт аудио: lossless
Продолжительность: 51:00
Источник (релизер): CD
Наличие сканов в содержимом раздачи: нет
Треклист:
1 Sunrise, Twice 7:46
2 Career Ladder 8:47
3 Stuck For Good 9:16
4 Now What 4:45
5 Low Budget 7:27
6 Desfile 7:38
7 No Doubt 5:15
 
Лог создания рипа
Exact Audio Copy V1.0 beta 2 from 29. April 2011
EAC extraction logfile from 14. January 2014, 10:50
Simon Nabatov / Roundup
Used drive : Optiarc DVD RW AD-7170A Adapter: 0 ID: 0
Read mode : Secure
Utilize accurate stream : Yes
Defeat audio cache : Yes
Make use of C2 pointers : No
Read offset correction : 48
Overread into Lead-In and Lead-Out : No
Fill up missing offset samples with silence : Yes
Delete leading and trailing silent blocks : No
Null samples used in CRC calculations : Yes
Used interface : Native Win32 interface for Win NT & 2000
Used output format : User Defined Encoder
Selected bitrate : 320 kBit/s
Quality : High
Add ID3 tag : No
Command line compressor : C:\Program Files\Exact Audio Copy\Flac\flac.exe
Additional command line options : -V -8 -T "Date=%year%" -T "Genre=%genre%" %source%
TOC of the extracted CD
Track | Start | Length | Start sector | End sector
---------------------------------------------------------
1 | 0:00.00 | 7:49.51 | 0 | 35225
2 | 7:49.51 | 8:48.48 | 35226 | 74873
3 | 16:38.24 | 9:17.11 | 74874 | 116659
4 | 25:55.35 | 4:48.21 | 116660 | 138280
5 | 30:43.56 | 7:30.56 | 138281 | 172086
6 | 38:14.37 | 7:38.45 | 172087 | 206481
7 | 45:53.07 | 5:07.65 | 206482 | 229571
Range status and errors
Selected range
Filename K:\ЕАС\Simon Nabatov - Roundup.wav
Peak level 97.7 %
Extraction speed 1.9 X
Range quality 100.0 %
Test CRC 9228886F
Copy CRC 9228886F
Copy OK
No errors occurred
AccurateRip summary
Track 1 accurately ripped (confidence 1) [8F70B55B] (AR v1)
Track 2 accurately ripped (confidence 1) [6AC78132] (AR v1)
Track 3 accurately ripped (confidence 1) [F026AA65] (AR v1)
Track 4 accurately ripped (confidence 1) [DDACA9ED] (AR v1)
Track 5 accurately ripped (confidence 1) [3682156D] (AR v1)
Track 6 accurately ripped (confidence 1) [DB48FA23] (AR v1)
Track 7 accurately ripped (confidence 1) [64D2AC3B] (AR v1)
All tracks accurately ripped
End of status report
==== Log checksum 96638D21380FF5C9BC0F2DADF44366338AE92029FE585EE8BB6EE975AEF7D527 ====
 
Содержание индексной карты (.CUE)
REM GENRE Jazz
REM DATE 2010
REM DISCID 590BF407
REM COMMENT "ExactAudioCopy v1.0b2"
PERFORMER "Simon Nabatov"
TITLE "Roundup "
FILE "Simon Nabatov - Roundup.flac" WAVE
TRACK 01 AUDIO
TITLE "Sunrise, Twice"
PERFORMER "Simon Nabatov"
ISRC GBJZD0100042
FLAGS DCP
INDEX 01 00:00:00
TRACK 02 AUDIO
TITLE "Career Ladder"
PERFORMER "Simon Nabatov"
ISRC GBJZD0100043
FLAGS DCP
INDEX 00 07:45:59
INDEX 01 07:49:51
TRACK 03 AUDIO
TITLE " Stuck For Good "
PERFORMER "Simon Nabatov"
ISRC GBJZD0100044
FLAGS DCP
INDEX 00 16:35:53
INDEX 01 16:38:24
TRACK 04 AUDIO
TITLE "Now What "
PERFORMER "Simon Nabatov"
ISRC GBJZD0100045
FLAGS DCP
INDEX 01 25:55:35
TRACK 05 AUDIO
TITLE "Low Budget"
PERFORMER "Simon Nabatov"
ISRC GBJZD0100046
FLAGS DCP
INDEX 00 30:39:41
INDEX 01 30:43:56
TRACK 06 AUDIO
TITLE "Desfile"
PERFORMER "Simon Nabatov"
ISRC GBJZD0100047
FLAGS DCP
INDEX 00 38:11:03
INDEX 01 38:14:37
TRACK 07 AUDIO
TITLE "No Doubt"
PERFORMER "Simon Nabatov"
ISRC GBJZD0100048
FLAGS DCP
INDEX 01 45:53:07
Доп. информация: Recorded At – Loft, Köln on December 5-6, 2009
 
Состав
Cello – Ernst Reijseger
Drums – Tom Rainey
Piano – Simon Nabatov
Tenor Saxophone – Matthias Schubert
Trombone – Nils Wogram
По всем вопросам пишите личное сообщение пользователю M0p94ok.
22:22
158
Нет комментариев. Ваш будет первым!