Вы используете незарегистрированную версию компонента "Вкладки"!

Поиск

(Free Jazz, Contemporary Jazz) Alexander von Schlippenbach & Berlin Contemporary Jazz Orchestra - The Morlocks And Other Pieces - 1994, FLAC (tracks+.cue), lossless

(Free Jazz, Contemporary Jazz) Alexander von Schlippenbach & Berlin Contemporary Jazz Orchestra - The Morlocks And Other Pieces - 1994, FLAC (tracks+.cue), lossless
Треклист:
Alexander von Schlippenbach & Berlin Contemporary Jazz Orchestra - The Morlocks And Other Pieces
Жанр: Free Jazz, Contemporary Jazz
Год выпуска диска: 1994
Аудио кодек: FLAC
Тип рипа: tracks+.cue
Битрейт аудио: lossless
Продолжительность: 69:06
Трэклист:
1. Any piece, but A's piece (1993) (10:28)
2. Contrareflection (1989) (7:06)
3. Rigaudon Nr.2 aus der Wasserstoffmusik (1987) (12:03)
4. Marcia di Saturno (1984) (12:54)
5. The Morlocks (1993) (16:00)
6. Jackhammer (1983) (10:32)
Доп. информация: Compositions by Alexander von Schlippenbach
Recorded July 10 and 11, 1993 at RIAS Berlin, Studio 10
Recording team: Hans Martin, Ralph Seidler, Barbara Rüger
Produced by Alexander von Schlippenbach & Jost Gebers
musicians:
Henry Lowther : trumpet
Thomas Heberer : trumpet
Axel Dörner : trumpet
Tilman Denhard : flute, piccolo flute, tenor saxophone
Darcy Hepner : alto saxophone
Evan Parker : soprano saxophone, tenor saxophone
Walter Gauchel : tenor saxophone
Claas Willecke : flute, baritone saxophone
Jörg Huke : trombone
Marc Boukouya : trombone
Sören Fischer : trombone
Utz Zimmermann : bass trombone
Alexander von Schlippenbach : piano, conductor
Aki Takase : piano, conductor
Nobuyoshi Ino : double bass
Paul Lovens : percussion
 
Отчёт EAC
сExact Audio Copy V0.99 prebeta 4 from 23. January 2008
EAC extraction logfile from 29. June 2009, 8:38
The Berlin Contemporary Jazz Orchestra / The Morlocks and other pieces
Used drive : Optiarc DVD RW AD-7200A Adapter: 0 ID: 1
Read mode : Secure
Utilize accurate stream : Yes
Defeat audio cache : Yes
Make use of C2 pointers : No
Read offset correction : 48
Overread into Lead-In and Lead-Out : No
Fill up missing offset samples with silence : Yes
Delete leading and trailing silent blocks : No
Null samples used in CRC calculations : Yes
Used interface : Installed external ASPI interface
Gap handling : Appended to previous track
Used output format : User Defined Encoder
Selected bitrate : 896 kBit/s
Quality : High
Add ID3 tag : No
Command line compressor : C:\Program Files\Exact Audio Copy\flac.exe
Additional command line options : -8 -A tukey(0.25) -A gauss(0.1875) -b 4096 -V -T "artist=%a" -T "title=%t" -T "album=%g" -T "date=%y" -T "tracknumber=%n" -T "genre=%m" %s --sector-align
TOC of the extracted CD
Track | Start | Length | Start sector | End sector
---------------------------------------------------------
1 | 0:00.00 | 10:27.23 | 0 | 47047
2 | 10:27.23 | 7:07.00 | 47048 | 79072
3 | 17:34.23 | 12:03.61 | 79073 | 133358
4 | 29:38.09 | 12:54.00 | 133359 | 191408
5 | 42:32.09 | 16:00.74 | 191409 | 263482
6 | 58:33.08 | 10:31.19 | 263483 | 310826
Track 1
Filename H:\WORK\Berlin Contemporary Jazz Orchestra - The Morlocks and other pieces\01 - The Berlin Contemporary Jazz Orchestra - Any piece, but A's piece .wav
Pre-gap length 0:00:02.00
Peak level 98.0 %
Track quality 100.0 %
Test CRC 0E4FD6A2
Copy CRC 0E4FD6A2
Copy OK
Track 2
Filename H:\WORK\Berlin Contemporary Jazz Orchestra - The Morlocks and other pieces\02 - The Berlin Contemporary Jazz Orchestra - Contrareflection .wav
Peak level 96.4 %
Track quality 99.9 %
Test CRC 5B60EE8B
Copy CRC 5B60EE8B
Copy OK
Track 3
Filename H:\WORK\Berlin Contemporary Jazz Orchestra - The Morlocks and other pieces\03 - The Berlin Contemporary Jazz Orchestra - Rigaudon Nr. 2 aus der Wasserstoffmusik .wav
Peak level 98.0 %
Track quality 100.0 %
Test CRC 5D04FA49
Copy CRC 5D04FA49
Copy OK
Track 4
Filename H:\WORK\Berlin Contemporary Jazz Orchestra - The Morlocks and other pieces\04 - The Berlin Contemporary Jazz Orchestra - Marcia di Saturno .wav
Peak level 98.0 %
Track quality 100.0 %
Test CRC CA752927
Copy CRC CA752927
Copy OK
Track 5
Filename H:\WORK\Berlin Contemporary Jazz Orchestra - The Morlocks and other pieces\05 - The Berlin Contemporary Jazz Orchestra - The Morlocks .wav
Peak level 98.0 %
Track quality 99.9 %
Test CRC EB0B1FE0
Copy CRC EB0B1FE0
Copy OK
Track 6
Filename H:\WORK\Berlin Contemporary Jazz Orchestra - The Morlocks and other pieces\06 - The Berlin Contemporary Jazz Orchestra - Jackhammer .wav
Peak level 98.0 %
Track quality 99.9 %
Test CRC BE3AE267
Copy CRC BE3AE267
Copy OK
No errors occurred
End of status report
Any questions -> support@pro-jazz.com. По всем вопросам пишите -> support@pro-jazz.com
12:45
151
Нет комментариев. Ваш будет первым!