Вы используете незарегистрированную версию компонента "Вкладки"!

Поиск

(Free Jazz, Contemporary Improvisation) Sylvain Kassap Quartet: Strophes - 1998, FLAC (tracks+.cue), lossless

Треклист:
Sylvain Kassap Quartet: Strophes
Жанр: Free Jazz, Contemporary Improvisation
Год выпуска диска: 1998
Производитель диска: France
Label: Evidence EVCD826
Аудио кодек: FLAC
Тип рипа: tracks+.cue + Artwork
Битрейт аудио: lossless
Продолжительность: 47:34
Происхождение рипа: собственный рип с оригинального диска.
Треклист:
01. Palindrome(s)
02. Palimpseste
03. Petits malentendus sans importance
04. Molly Bloom
05. Botrystis Cinera
06. Portegne
07. Vers
08. Strange Fruit
09. Bancal
10. Scalp
Доп. информация:
Sylvain Kassap - bass clarinet, bass, si b & mi b
Jean François Canape - trumpet, bugle
Hélène Labarrière - double bass
Christophe Marguet - drums
Recorded on January 6 and 8, 1998 at Studio Piccolo by Vincent Bruley.
Mastered by Frédéric Marin at Alcyon.
 
EAC log
Exact Audio Copy V0.99 prebeta 5 from 4. May 2009
EAC extraction logfile from 6. August 2010, 2:17
Sylvain Kassap Quartet / Strophes
Used drive : HL-DT-STDVD-ROM GDR8162B Adapter: 1 ID: 1
Read mode : Secure
Utilize accurate stream : Yes
Defeat audio cache : Yes
Make use of C2 pointers : No
Read offset correction : 102
Overread into Lead-In and Lead-Out : Yes
Fill up missing offset samples with silence : Yes
Delete leading and trailing silent blocks : No
Null samples used in CRC calculations : Yes
Used interface : Installed external ASPI interface
Gap handling : Appended to previous track
Used output format : User Defined Encoder
Selected bitrate : 768 kBit/s
Quality : High
Add ID3 tag : No
Command line compressor : C:\Program Files\FLAC\flac.exe
Additional command line options : -V -8 -T "ARTIST=%a" -T "TITLE=%t" -T "ALBUM=%g" -T "TRACKNUMBER=%n" -T "GENRE=%m" %s
TOC of the extracted CD
Track | Start | Length | Start sector | End sector
---------------------------------------------------------
1 | 0:00.00 | 3:24.12 | 0 | 15311
2 | 3:24.12 | 4:14.35 | 15312 | 34396
3 | 7:38.47 | 7:07.08 | 34397 | 66429
4 | 14:45.55 | 5:04.37 | 66430 | 89266
5 | 19:50.17 | 4:10.23 | 89267 | 108039
6 | 24:00.40 | 3:38.67 | 108040 | 124456
7 | 27:39.32 | 2:01.43 | 124457 | 133574
8 | 29:41.00 | 5:50.25 | 133575 | 159849
9 | 35:31.25 | 5:52.52 | 159850 | 186301
10 | 41:24.02 | 6:08.65 | 186302 | 213966
Track 1
Filename C:\ru up\Sylvain Kassap Quartet - Strophes\01 - Palindrome (s).wav
Pre-gap length 0:00:02.00
Peak level 98.0 %
Track quality 100.0 %
Test CRC 94612E14
Copy CRC 94612E14
Accurately ripped (confidence 1) [CC88FC6C]
Copy OK
Track 2
Filename C:\ru up\Sylvain Kassap Quartet - Strophes\02 - Palimpseste.wav
Peak level 98.0 %
Track quality 100.0 %
Test CRC 19800B1D
Copy CRC 19800B1D
Accurately ripped (confidence 1) [0B77ED8B]
Copy OK
Track 3
Filename C:\ru up\Sylvain Kassap Quartet - Strophes\03 - Petits malentendus sans importance.wav
Peak level 98.0 %
Track quality 100.0 %
Test CRC 7AA12405
Copy CRC 7AA12405
Accurately ripped (confidence 1) [C8FEA078]
Copy OK
Track 4
Filename C:\ru up\Sylvain Kassap Quartet - Strophes\04 - Molly Bloom.wav
Pre-gap length 0:00:02.20
Peak level 98.0 %
Track quality 99.9 %
Test CRC AE5B1889
Copy CRC AE5B1889
Accurately ripped (confidence 1) [C6952D42]
Copy OK
Track 5
Filename C:\ru up\Sylvain Kassap Quartet - Strophes\05 - Botrtis Cinerea.wav
Pre-gap length 0:00:02.22
Peak level 98.0 %
Track quality 100.0 %
Test CRC 6D5E7A32
Copy CRC 6D5E7A32
Accurately ripped (confidence 1) [F7281569]
Copy OK
Track 6
Filename C:\ru up\Sylvain Kassap Quartet - Strophes\06 - Portegne.wav
Peak level 98.0 %
Track quality 100.0 %
Test CRC D245649B
Copy CRC D245649B
Accurately ripped (confidence 1) [C3F9230F]
Copy OK
Track 7
Filename C:\ru up\Sylvain Kassap Quartet - Strophes\07 - Vers.wav
Pre-gap length 0:00:02.12
Peak level 85.1 %
Track quality 100.0 %
Test CRC D475D977
Copy CRC D475D977
Accurately ripped (confidence 1) [86E320DB]
Copy OK
Track 8
Filename C:\ru up\Sylvain Kassap Quartet - Strophes\08 - Strange fruit.wav
Peak level 98.0 %
Track quality 99.9 %
Test CRC 522998A9
Copy CRC 522998A9
Accurately ripped (confidence 1) [D78C37F5]
Copy OK
Track 9
Filename C:\ru up\Sylvain Kassap Quartet - Strophes\09 - Bancal.wav
Peak level 98.0 %
Track quality 100.0 %
Test CRC B99EC0A9
Copy CRC B99EC0A9
Accurately ripped (confidence 1) [20AD4C72]
Copy OK
Track 10
Filename C:\ru up\Sylvain Kassap Quartet - Strophes\10 - Scalp.wav
Pre-gap length 0:00:00.01
Peak level 98.0 %
Track quality 100.0 %
Test CRC 876FB745
Copy CRC 876FB745
Accurately ripped (confidence 1) [415F4D13]
Copy OK
All tracks accurately ripped
No errors occurred
End of status report
 
cue
REM GENRE Avant-Garde
REM DATE 1998
REM DISCID 810B240A
REM COMMENT "ExactAudioCopy v0.99pb5"
CATALOG 0000000000000
PERFORMER "Sylvain Kassap Quartet"
TITLE "Strophes"
FILE "01 - Palindrome (s).wav" WAVE
TRACK 01 AUDIO
TITLE "Palindrome (s)"
PERFORMER "Sylvain Kassap Quartet"
INDEX 01 00:00:00
FILE "02 - Palimpseste.wav" WAVE
TRACK 02 AUDIO
TITLE "Palimpseste"
PERFORMER "Sylvain Kassap Quartet"
INDEX 01 00:00:00
FILE "03 - Petits malentendus sans importance.wav" WAVE
TRACK 03 AUDIO
TITLE "Petits malentendus sans importance"
PERFORMER "Sylvain Kassap Quartet"
INDEX 01 00:00:00
TRACK 04 AUDIO
TITLE "Molly Bloom"
PERFORMER "Sylvain Kassap Quartet"
INDEX 00 07:04:63
FILE "04 - Molly Bloom.wav" WAVE
INDEX 01 00:00:00
TRACK 05 AUDIO
TITLE "Botrtis Cinerea"
PERFORMER "Sylvain Kassap Quartet"
INDEX 00 05:02:15
FILE "05 - Botrtis Cinerea.wav" WAVE
INDEX 01 00:00:00
FILE "06 - Portegne.wav" WAVE
TRACK 06 AUDIO
TITLE "Portegne"
PERFORMER "Sylvain Kassap Quartet"
INDEX 01 00:00:00
TRACK 07 AUDIO
TITLE "Vers"
PERFORMER "Sylvain Kassap Quartet"
INDEX 00 03:36:55
FILE "07 - Vers.wav" WAVE
INDEX 01 00:00:00
FILE "08 - Strange fruit.wav" WAVE
TRACK 08 AUDIO
TITLE "Strange fruit"
PERFORMER "Sylvain Kassap Quartet"
INDEX 01 00:00:00
FILE "09 - Bancal.wav" WAVE
TRACK 09 AUDIO
TITLE "Bancal"
PERFORMER "Sylvain Kassap Quartet"
INDEX 01 00:00:00
TRACK 10 AUDIO
TITLE "Scalp"
PERFORMER "Sylvain Kassap Quartet"
INDEX 00 05:52:51
FILE "10 - Scalp.wav" WAVE
INDEX 01 00:00:00
По всем вопросам пишите личное сообщение пользователю M0p94ok.
01:56
143
Нет комментариев. Ваш будет первым!