Вы используете незарегистрированную версию компонента "Вкладки"!

Поиск

(Free Jazz, CIMP) Rob Brown / Lou Grassi Quartet - Scratching the Surface - 1998, FLAC (tracks+.cue), lossless

(Free Jazz, CIMP) Rob Brown / Lou Grassi Quartet - Scratching the Surface - 1998, FLAC (tracks+.cue), lossless
Треклист:
Rob Brown / Lou Grassi Quartet - Scratching the Surface
Жанр: Free Jazz, CIMP
Страна-производитель диска: USA
Год издания: 1998
Издатель (лейбл): CIMP
Номер по каталогу: #161
Страна: USA
Аудиокодек: FLAC (*.flac)
Тип рипа: tracks+.cue
Битрейт аудио: lossless
Продолжительность: 1:11:34
Источник (релизер): собственный
Наличие сканов в содержимом раздачи: да
1 The Arc
2 Stray Arrow
3 A Hatful
4 Clean Sweep
5 3 Rings
6 Triangle
7 Procession
8 Unitarians
Recorded at The Spirit Room, Rossie, NY, October 6 & 7, 1997.
 
Лог создания рипа
Exact Audio Copy V1.0 beta 3 from 29. August 2011
EAC extraction logfile from 11. August 2012, 9:48
Rob Brown-Lou Grassi Quartet / Scratching the Surface
Used drive : SlimtypeDVD A DS8A5SH Adapter: 0 ID: 1
Read mode : Secure
Utilize accurate stream : Yes
Defeat audio cache : Yes
Make use of C2 pointers : No
Read offset correction : 6
Overread into Lead-In and Lead-Out : No
Fill up missing offset samples with silence : Yes
Delete leading and trailing silent blocks : No
Null samples used in CRC calculations : Yes
Used interface : Native Win32 interface for Win NT & 2000
Gap handling : Appended to previous track
Used output format : User Defined Encoder
Selected bitrate : 128 kBit/s
Quality : High
Add ID3 tag : No
Command line compressor : C:\Program Files (x86)\Exact Audio Copy\Flac\flac.exe
Additional command line options : -V -8 -T "Genre=%genre%" -T "Artist=%artist%" -T "Title=%title%" -T "Album=%albumtitle%" -T "Date=%year%" -T "Tracknumber=%tracknr%" -T "Comment=%comment%" %source%
TOC of the extracted CD
Track | Start | Length | Start sector | End sector
---------------------------------------------------------
1 | 0:01.00 | 5:13.60 | 75 | 23609
2 | 5:14.60 | 9:28.73 | 23610 | 66282
3 | 14:43.58 | 8:42.20 | 66283 | 105452
4 | 23:26.03 | 7:59.06 | 105453 | 141383
5 | 31:25.09 | 15:35.30 | 141384 | 211538
6 | 47:00.39 | 8:02.50 | 211539 | 247738
7 | 55:03.14 | 8:27.58 | 247739 | 285821
8 | 63:30.72 | 8:08.04 | 285822 | 322425
Track 1
Filename D:\Musak 2\Lou Grassi\Scratching the Surface (1998)\01. The Arc.wav
Pre-gap length 0:00:03.00
Peak level 100.0 %
Extraction speed 1.3 X
Track quality 100.0 %
Test CRC AC8CC294
Copy CRC AC8CC294
Copy OK
Track 2
Filename D:\Musak 2\Lou Grassi\Scratching the Surface (1998)\02. Stray Arrow.wav
Pre-gap length 0:00:01.60
Peak level 42.2 %
Extraction speed 1.6 X
Track quality 100.0 %
Test CRC B6FD992A
Copy CRC B6FD992A
Copy OK
Track 3
Filename D:\Musak 2\Lou Grassi\Scratching the Surface (1998)\03. A Hatful.wav
Pre-gap length 0:00:01.60
Peak level 57.3 %
Extraction speed 1.8 X
Track quality 100.0 %
Test CRC EAEC8058
Copy CRC EAEC8058
Copy OK
Track 4
Filename D:\Musak 2\Lou Grassi\Scratching the Surface (1998)\04. Clean Sweep.wav
Pre-gap length 0:00:01.60
Peak level 100.0 %
Extraction speed 1.9 X
Track quality 99.9 %
Test CRC F76FED84
Copy CRC F76FED84
Copy OK
Track 5
Filename D:\Musak 2\Lou Grassi\Scratching the Surface (1998)\05. 3 Rings.wav
Pre-gap length 0:00:01.60
Peak level 81.0 %
Extraction speed 2.3 X
Track quality 100.0 %
Test CRC AE97C973
Copy CRC AE97C973
Copy OK
Track 6
Filename D:\Musak 2\Lou Grassi\Scratching the Surface (1998)\06. Triangle.wav
Pre-gap length 0:00:01.60
Peak level 100.0 %
Extraction speed 2.4 X
Track quality 100.0 %
Test CRC DB8F9F45
Copy CRC DB8F9F45
Copy OK
Track 7
Filename D:\Musak 2\Lou Grassi\Scratching the Surface (1998)\07. Procession.wav
Pre-gap length 0:00:01.60
Peak level 57.1 %
Extraction speed 2.6 X
Track quality 100.0 %
Test CRC 0C67C3C2
Copy CRC 0C67C3C2
Copy OK
Track 8
Filename D:\Musak 2\Lou Grassi\Scratching the Surface (1998)\08. Unitarians.wav
Pre-gap length 0:00:01.60
Peak level 100.0 %
Extraction speed 2.5 X
Track quality 99.9 %
Test CRC 3B45655E
Copy CRC 3B45655E
Copy OK
No errors occurred
End of status report
==== Log checksum D6A6F80E12B5AAB4F2AE3EA0A908E7C08EBF3A1DA621B01216844AEF90C1887A ====
 
Содержание индексной карты (.CUE)
REM GENRE Jazz
REM DATE 1998
REM DISCID 6E10CA08
REM COMMENT "ExactAudioCopy v1.0b3"
PERFORMER "Rob Brown-Lou Grassi Quartet"
TITLE "Scratching the Surface"
FILE "01. The Arc.wav" WAVE
TRACK 01 AUDIO
TITLE "The Arc"
PERFORMER "Rob Brown-Lou Grassi Quartet"
FLAGS DCP
PREGAP 00:01:00
INDEX 01 00:00:00
TRACK 02 AUDIO
TITLE "Stray Arrow"
PERFORMER "Rob Brown-Lou Grassi Quartet"
FLAGS DCP
INDEX 00 05:12:00
FILE "02. Stray Arrow.wav" WAVE
INDEX 01 00:00:00
TRACK 03 AUDIO
TITLE "A Hatful"
PERFORMER "Rob Brown-Lou Grassi Quartet"
FLAGS DCP
INDEX 00 09:27:13
FILE "03. A Hatful.wav" WAVE
INDEX 01 00:00:00
TRACK 04 AUDIO
TITLE "Clean Sweep"
PERFORMER "Rob Brown-Lou Grassi Quartet"
FLAGS DCP
INDEX 00 08:40:35
FILE "04. Clean Sweep.wav" WAVE
INDEX 01 00:00:00
TRACK 05 AUDIO
TITLE "3 Rings"
PERFORMER "Rob Brown-Lou Grassi Quartet"
FLAGS DCP
INDEX 00 07:57:21
FILE "05. 3 Rings.wav" WAVE
INDEX 01 00:00:00
TRACK 06 AUDIO
TITLE "Triangle"
PERFORMER "Rob Brown-Lou Grassi Quartet"
FLAGS DCP
INDEX 00 15:33:45
FILE "06. Triangle.wav" WAVE
INDEX 01 00:00:00
TRACK 07 AUDIO
TITLE "Procession"
PERFORMER "Rob Brown-Lou Grassi Quartet"
FLAGS DCP
INDEX 00 08:00:65
FILE "07. Procession.wav" WAVE
INDEX 01 00:00:00
TRACK 08 AUDIO
TITLE "Unitarians"
PERFORMER "Rob Brown-Lou Grassi Quartet"
FLAGS DCP
INDEX 00 08:25:73
FILE "08. Unitarians.wav" WAVE
INDEX 01 00:00:00
 
Об альбоме
Two saxes, bass, and drums playing wildly free jazz might seem like a tough act, but not with the talent assembled here. Alto saxophonist Rob Brown has made a name for himself as a supremely gifted stylist, and if you listen close enough, you can hear the ghost of early Ornette. Add tenor saxophonist Assif Tsahar, who has absorbed the post-Coltrane dialect, and you have a genuine battle of the saxes. Co-leader and percussionist Lou Grassi continues to impress with his forays into the lower depths, aided by the solid chops of bassist Chris Lightcap. High points include the wonderful tunes and arrangements by Brown, as well as his highly inventive soloing. If the horns sometimes seem to fly in different directions, the lengthy improvisations should be a sax lover's delight.
by Steve Loewy
***
The combination of Rob Brown and Assif Tsahar is quickly becoming my pairing of choice for reliably conceived improvisational brilliance. On the several recordings the two have graced together to date they demonstrate a degree of rapport that borders on the supernatural. Reference their unbelievable conversations on William Parker's "Posieum Pendasem" on the FMP label for a slice of what I'm alluding to. This date finds the two earlier in their associations and thankfully delivers another profusion of examples as to why they rank among the upper echelons of improvising musicians.
All four men are at the height of their game on this session and the compositions, authored mainly by Brown, are designed with maximum improvisational opportunities in mind. Lightcap is perhaps most well known as bassist in Joe Morris' working quartet. Grassi's discography has largely been limited to other CIMP dates, but his ingenuity on the drums screams for increased opportunities to record.
“The Arc" sets a tantalizing stage finding the four feeling the surroundings and each other out. Of particular interest is Grassi's athletic solo that closes the tune in wash of thunderous drums. "Stray Arrow" changes direction in a lyrical conversation forwarded by Brown blowing punctiliously across the upper registers of his horn. Grassi's kit is aflutter with tiny percussive accents and Tsahar answers Brown's opening oration with a lyrical turn of his own. On "A Hatful," after a deceptively gradual beginning, the four pull out the all stops in a stampede of sounds. Brown and Tsahar devise one of their elaborate duets blending squealing lines with hermetic proximity and it’s during unison passages such as this that the saxophonists really demonstrate their staggering levels of volatile congruity. Towards the piece’s close, Grassi embarks an extended foray on brushes that is equally engrossing in its muted intricacy.
A nervous energy pervades “3 Rings” thanks mainly to Lightcap’s prickly plucked and bowed bass lines. His iron fingers also introduce Tsahar’s “Triangle” weaving a tight rhythmic texture for the horns to tug against. “Procession” offers a rare reprieve of quietude and finds Brown and Tsahar again trading off solo passages at a decelerated before their final frenetic blowout on Lightcap’s “Unitarians.” As the only recording thus far released by this quartet this meeting of their minds is made all the more valuable. Listeners with even a marginal interest in creative improvised music are strongly advised to seek it out.
By DEREK TAYLOR
***
The Rob Brown and Lou Grassi Quartet is an intense group offering post bop music which is thematically solid in form and composition and heady in its chewy improvisations. And, even with a two man sax line, this music offers excellent deliniation of line and beautiful audio definition of its sound. Recorded October 6 & 7, 1997.
 
Состав
Rob Brown - alto saxophone
Assif Tsahar - tenor saxophone
Chris Lightcap - bass
Lou Grassi - drums
Any questions -> support@pro-jazz.com. По всем вопросам пишите -> support@pro-jazz.com
02:58
153
Нет комментариев. Ваш будет первым!