Вы используете незарегистрированную версию компонента "Вкладки"!

Поиск

(Free Jazz / CIMP) Ori Kaplan Trio Plus with Steve Swell - Delirium - 2000, FLAC (image+.cue), lossless

(Free Jazz / CIMP) Ori Kaplan Trio Plus with Steve Swell - Delirium - 2000, FLAC (image+.cue), lossless
Треклист:
Ori Kaplan Trio Plus with Steve Swell - Delirium
Жанр: Free Jazz / CIMP
Год выпуска диска: 2000
Производитель диска: USA
Фирма: CIMP
Продолжительность: 63:11
Тип рипа: image+.cue
Битрейт аудио: lossless
Источник: собственный диск
Трэклист:
01 Dawn
02 Air
03 Delirium
04 Ictus
05 Embrio
06 Embrio
07 Hazy Dazy On Mars
08 Still Calm
Доп. информация:
Ori Kaplan - as
Tom Abbs - tuba, b
Steve Swell - tb
Geoff Mann - tp, d
Rec NY May 1 & 2, 2000
 
отчёт ЕАС
Exact Audio Copy V0.99 prebeta 5 from 4. May 2009
EAC extraction logfile from 7. April 2010, 16:44
Ori Kaplan Trio Plus / Delirium
Used drive : Optiarc DVD RW AD-5200S Adapter: 1 ID: 0
Read mode : Secure
Utilize accurate stream : Yes
Defeat audio cache : Yes
Make use of C2 pointers : No
Read offset correction : 48
Overread into Lead-In and Lead-Out : No
Fill up missing offset samples with silence : Yes
Delete leading and trailing silent blocks : No
Null samples used in CRC calculations : Yes
Used interface : Installed external ASPI interface
Used output format : User Defined Encoder
Selected bitrate : 192 kBit/s
Quality : High
Add ID3 tag : No
Command line compressor : C:\Program Files\Burrrn\flac.exe
Additional command line options : -T "DATE=%y" -T "GENRE=%m" -8 -V %s
TOC of the extracted CD
Track | Start | Length | Start sector | End sector
---------------------------------------------------------
1 | 0:00.00 | 8:03.72 | 0 | 36296
2 | 8:03.72 | 12:30.25 | 36297 | 92571
3 | 20:34.22 | 6:41.60 | 92572 | 122706
4 | 27:16.07 | 4:34.48 | 122707 | 143304
5 | 31:50.55 | 7:11.52 | 143305 | 175681
6 | 39:02.32 | 3:37.43 | 175682 | 191999
7 | 42:40.00 | 10:57.25 | 192000 | 241299
8 | 53:37.25 | 9:33.70 | 241300 | 284344
Range status and errors
Selected range
Filename F:\EAC\delirium\Ori Kaplan Trio Plus - Delirium.wav
Peak level 88.8 %
Range quality 100.0 %
Copy CRC 194AB5D4
Copy OK
No errors occurred
AccurateRip summary
Track 1 not present in database
Track 2 not present in database
Track 3 not present in database
Track 4 not present in database
Track 5 not present in database
Track 6 not present in database
Track 7 not present in database
Track 8 not present in database
None of the tracks are present in the AccurateRip database
End of status report
Any questions -> support@pro-jazz.com. По всем вопросам пишите -> support@pro-jazz.com
20:47
111
Нет комментариев. Ваш будет первым!