Вы используете незарегистрированную версию компонента "Вкладки"!

Поиск

(Free Jazz / CIMP) Kalaparush McIntyre & The Light meet Adam Lane - Paths of Glory - 2004, FLAC (image+.cue), lossless

Треклист:
Kalaparush McIntyre & The Light meet Adam Lane - Paths of Glory
Жанр: Free Jazz / CIMP
Год выпуска диска: 2004
Производитель диска: USA (CIMP)
Аудио кодек: FLAC
Тип рипа: image+.cue
Битрейт аудио: lossless
Продолжительность: 66:52
Трэклист:
01 Dream of ...
02 Dance
03 Date
04 Suite for my mother
05 Five #2
06 Five #1
07 Let us all relax
08 Confirmation
Kalaparush Maurice McIntyre ts
Adam Lane b
Jesse Dulman tuba
Ravish Momin d
Rec Mar 4&5, 2004 Spirit Room NY
Доп. информация: в сканах
Источник: рип мой
 
отчёт ЕАС
Exact Audio Copy V0.99 prebeta 5 from 4. May 2009
EAC extraction logfile from 8. May 2010, 12:22
Kalaparush McIntyre & The Light / meet Adam Lane
Used drive : Optiarc DVD RW AD-5200S Adapter: 1 ID: 0
Read mode : Secure
Utilize accurate stream : Yes
Defeat audio cache : Yes
Make use of C2 pointers : No
Read offset correction : 48
Overread into Lead-In and Lead-Out : No
Fill up missing offset samples with silence : Yes
Delete leading and trailing silent blocks : No
Null samples used in CRC calculations : Yes
Used interface : Installed external ASPI interface
Used output format : User Defined Encoder
Selected bitrate : 192 kBit/s
Quality : High
Add ID3 tag : No
Command line compressor : C:\Program Files\Burrrn\flac.exe
Additional command line options : -T "DATE=%y" -T "GENRE=%m" -8 -V %s
TOC of the extracted CD
Track | Start | Length | Start sector | End sector
---------------------------------------------------------
1 | 0:00.00 | 8:28.73 | 0 | 38172
2 | 8:28.73 | 8:14.51 | 38173 | 75273
3 | 16:43.49 | 6:29.42 | 75274 | 104490
4 | 23:13.16 | 18:58.60 | 104491 | 189900
5 | 42:12.01 | 6:18.55 | 189901 | 218305
6 | 48:30.56 | 6:38.24 | 218306 | 248179
7 | 55:09.05 | 7:08.73 | 248180 | 280352
8 | 62:18.03 | 4:33.67 | 280353 | 300894
Range status and errors
Selected range
Filename F:\EAC\Новая папка (2)\Kalaparush McIntyre & The Light - meet Adam Lane.wav
Peak level 92.1 %
Range quality 100.0 %
Copy CRC 070513AB
Copy OK
No errors occurred
AccurateRip summary
Track 1 not present in database
Track 2 not present in database
Track 3 not present in database
Track 4 not present in database
Track 5 not present in database
Track 6 not present in database
Track 7 not present in database
Track 8 not present in database
None of the tracks are present in the AccurateRip database
End of status report
 
test copy
Exact Audio Copy V0.99 prebeta 5 from 4. May 2009
EAC extraction logfile from 10. May 2010, 2:33
Kalaparush McIntyre & The Light / meet Adam Lane
Used drive : Optiarc DVD RW AD-5200S Adapter: 1 ID: 0
Read mode : Secure
Utilize accurate stream : Yes
Defeat audio cache : Yes
Make use of C2 pointers : No
Read offset correction : 48
Overread into Lead-In and Lead-Out : No
Fill up missing offset samples with silence : Yes
Delete leading and trailing silent blocks : No
Null samples used in CRC calculations : Yes
Used interface : Installed external ASPI interface
Used output format : User Defined Encoder
Selected bitrate : 192 kBit/s
Quality : High
Add ID3 tag : No
Command line compressor : C:\Program Files\Burrrn\flac.exe
Additional command line options : -T "DATE=%y" -T "GENRE=%m" -8 -V %s
TOC of the extracted CD
Track | Start | Length | Start sector | End sector
---------------------------------------------------------
1 | 0:00.00 | 8:28.73 | 0 | 38172
2 | 8:28.73 | 8:14.51 | 38173 | 75273
3 | 16:43.49 | 6:29.42 | 75274 | 104490
4 | 23:13.16 | 18:58.60 | 104491 | 189900
5 | 42:12.01 | 6:18.55 | 189901 | 218305
6 | 48:30.56 | 6:38.24 | 218306 | 248179
7 | 55:09.05 | 7:08.73 | 248180 | 280352
8 | 62:18.03 | 4:33.67 | 280353 | 300894
Range status and errors
Selected range
Filename F:\EAC\Новая папка\Kalaparush McIntyre & The Light - meet Adam Lane.wav
Peak level 92.1 %
Range quality 100.0 %
Test CRC 070513AB
Copy CRC 070513AB
Copy OK
No errors occurred
AccurateRip summary
Track 1 not present in database
Track 2 not present in database
Track 3 not present in database
Track 4 not present in database
Track 5 not present in database
Track 6 not present in database
Track 7 not present in database
Track 8 not present in database
None of the tracks are present in the AccurateRip database
End of status report
По всем вопросам пишите личное сообщение пользователю M0p94ok.
22:32
185
Нет комментариев. Ваш будет первым!