Вы используете незарегистрированную версию компонента "Вкладки"!

Поиск

(Free Jazz / CIMP) Elliott Levin & Tyrone Hill Quartet - A Fine Intescity - 1999, FLAC (image+.cue), lossless

Треклист:
Elliott Levin & Tyrone Hill Quartet - A Fine Intescity
Жанр: Free Jazz / CIMP
Год выпуска диска: 1999
Производитель диска: USA (CIMP)
Аудио кодек: FLAC
Тип рипа: image+.cue
Битрейт аудио: lossless
Продолжительность: 66:49
Трэклист:
01 Brisk
02 Multiphonics Dream
03 Theatre on the Double
04 Nicole's Dance
05 Undiluted
06 Relativity
Elliott Levin ts, curved soprano sax
Tyrone Hill tb
Howard Cooper b
Ed Watkins dr
Rec Mar 29&30, 1999 Spirit Room NY
Доп. информация: в сканах
Источник: рип мой
 
отчёт ЕАС
Exact Audio Copy V0.99 prebeta 5 from 4. May 2009
EAC extraction logfile from 8. May 2010, 11:57
Elliott Levin & Tyrone Hill Quartet / A Fine Intensity
Used drive : Optiarc DVD RW AD-5200S Adapter: 1 ID: 0
Read mode : Secure
Utilize accurate stream : Yes
Defeat audio cache : Yes
Make use of C2 pointers : No
Read offset correction : 48
Overread into Lead-In and Lead-Out : No
Fill up missing offset samples with silence : Yes
Delete leading and trailing silent blocks : No
Null samples used in CRC calculations : Yes
Used interface : Installed external ASPI interface
Used output format : User Defined Encoder
Selected bitrate : 192 kBit/s
Quality : High
Add ID3 tag : No
Command line compressor : C:\Program Files\Burrrn\flac.exe
Additional command line options : -T "DATE=%y" -T "GENRE=%m" -8 -V %s
TOC of the extracted CD
Track | Start | Length | Start sector | End sector
---------------------------------------------------------
1 | 0:00.00 | 12:52.06 | 0 | 57905
2 | 12:52.06 | 11:00.05 | 57906 | 107410
3 | 23:52.11 | 10:57.06 | 107411 | 156691
4 | 34:49.17 | 9:26.06 | 156692 | 199147
5 | 44:15.23 | 8:31.27 | 199148 | 237499
6 | 52:46.50 | 14:02.34 | 237500 | 300683
Range status and errors
Selected range
Filename F:\EAC\Новая папка\Elliott Levin & Tyrone Hill Quartet - A Fine Intensity.wav
Peak level 100.0 %
Range quality 100.0 %
Copy CRC FE67D1B2
Copy OK
No errors occurred
AccurateRip summary
Track 1 cannot be verified as accurate (confidence 1) [62888318], AccurateRip returned [81F83388]
Track 2 cannot be verified as accurate (confidence 1) [AF90EB3F], AccurateRip returned [D66FDFFF]
Track 3 cannot be verified as accurate (confidence 1) [5550D9FE], AccurateRip returned [21A7ACBE]
Track 4 cannot be verified as accurate (confidence 1) [F41572A4], AccurateRip returned [08AD113C]
Track 5 cannot be verified as accurate (confidence 1) [C11A1167], AccurateRip returned [4F8B0577]
Track 6 cannot be verified as accurate (confidence 1) [04873293], AccurateRip returned [AC7AF47B]
No tracks could be verified as accurate
You may have a different pressing from the one(s) in the database
End of status report
По всем вопросам пишите личное сообщение пользователю M0p94ok.
22:30
169
Нет комментариев. Ваш будет первым!