Вы используете незарегистрированную версию компонента "Вкладки"!

Поиск

(Free Jazz / CIMP) David Taylor Trio - Morning Moon - 2004, FLAC (image+.cue), lossless

Треклист:
David Taylor Trio - Morning Moon
Жанр: Free Jazz / CIMP
Год выпуска диска: 2004
Производитель диска: USA
Фирма: CIMP
Аудио кодек: FLAC
Тип рипа: image+.cue
Битрейт аудио: lossless
Продолжительность: 73:42
Источник: собственный диск
Трэклист:
01 Morning Monn
02 Tammuz
03 Exercitium Bassorum Cum Rhythmo
04 Night Shades
05 Mazooma
06 Kislev
07 Kislev (Nuch a Mul)
08 Very Old Dance
09 Bred in Bithynia
10 Un Parcours Capricieux
11 Un Prelude Sportif
12 Bruler
13 Oh Lord, Please Don't Let Them Drop that Atomic Bomb on Me
Доп. информация:
David Taylor - tb, bass tb, voice
Dominic Duval - b
Jay Rosen - d
Rec NY March 11 & 12 2004 (studio)
 
отчёт ЕАС
Exact Audio Copy V0.99 prebeta 5 from 4. May 2009
EAC extraction logfile from 8. April 2010, 21:41
David Taylor Trio / Morning Moon
Used drive : Optiarc DVD RW AD-5200S Adapter: 1 ID: 0
Read mode : Secure
Utilize accurate stream : Yes
Defeat audio cache : Yes
Make use of C2 pointers : No
Read offset correction : 48
Overread into Lead-In and Lead-Out : No
Fill up missing offset samples with silence : Yes
Delete leading and trailing silent blocks : No
Null samples used in CRC calculations : Yes
Used interface : Installed external ASPI interface
Used output format : User Defined Encoder
Selected bitrate : 192 kBit/s
Quality : High
Add ID3 tag : No
Command line compressor : C:\Program Files\Burrrn\flac.exe
Additional command line options : -T "DATE=%y" -T "GENRE=%m" -8 -V %s
TOC of the extracted CD
Track | Start | Length | Start sector | End sector
---------------------------------------------------------
1 | 0:00.00 | 11:42.69 | 0 | 52718
2 | 11:42.69 | 2:39.30 | 52719 | 64673
3 | 14:22.24 | 5:16.20 | 64674 | 88393
4 | 19:38.44 | 5:53.35 | 88394 | 114903
5 | 25:32.04 | 9:03.25 | 114904 | 155653
6 | 34:35.29 | 1:08.46 | 155654 | 160799
7 | 35:44.00 | 1:07.48 | 160800 | 165872
8 | 36:51.48 | 8:42.50 | 165873 | 205072
9 | 45:34.23 | 5:28.09 | 205073 | 229681
10 | 51:02.32 | 10:08.10 | 229682 | 275291
11 | 61:10.42 | 3:57.73 | 275292 | 293139
12 | 65:08.40 | 2:07.02 | 293140 | 302666
13 | 67:15.42 | 6:26.47 | 302667 | 331663
Range status and errors
Selected range
Filename F:\EAC\morning moon\David Taylor Trio - Morning Moon.wav
Peak level 99.7 %
Range quality 100.0 %
Copy CRC 9AF94F18
Copy OK
No errors occurred
AccurateRip summary
Track 1 accurately ripped (confidence 1) [26CB28F6]
Track 2 accurately ripped (confidence 1) [9989E277]
Track 3 accurately ripped (confidence 1) [137D7BBC]
Track 4 accurately ripped (confidence 1) [15622F09]
Track 5 accurately ripped (confidence 1) [708818B3]
Track 6 accurately ripped (confidence 1) [3EACB380]
Track 7 accurately ripped (confidence 1) [7D1DA7AD]
Track 8 accurately ripped (confidence 1) [5312B4FD]
Track 9 accurately ripped (confidence 1) [07BA0B28]
Track 10 accurately ripped (confidence 1) [6F731C89]
Track 11 accurately ripped (confidence 1) [E11BA368]
Track 12 accurately ripped (confidence 1) [D9F587EC]
Track 13 accurately ripped (confidence 1) [C8D41085]
All tracks accurately ripped
End of status report
По всем вопросам пишите личное сообщение пользователю M0p94ok.
20:52
134
Нет комментариев. Ваш будет первым!