Вы используете незарегистрированную версию компонента "Вкладки"!

Поиск

(Free Jazz) Chico Freeman Quartet - No Time Left - 1993, FLAC (tracks+.cue) lossless

Треклист:
Chico Freeman Quartet - No Time Left
Жанр: Free Jazz
Страна-производитель диска: Italy
Год издания диска: 1993
Издатель (лейбл): Black Saint Records
Номер по каталогу: BSR 120 036-2
Аудио кодек: FLAC (*.flac)
Тип рипа: tracks+.cue
Битрейт аудио: lossless
Продолжительность: 35:48
Источник (релизер): собственный рип с оригинального диска.
Наличие сканов в содержимом раздачи: нет
Треклист:
01. No Time Left 17:49
02. Uhmla 12:26
03. Circle 5:14
 
Лог создания рипа
Exact Audio Copy V0.99 prebeta 5 from 4. May 2009
EAC extraction logfile from 1. May 2011, 10:44
Chico Freeman Quartet / No Time Left
Used drive : TSSTcorpCDDVDW SH-S222A Adapter: 1 ID: 0
Read mode : Secure
Utilize accurate stream : Yes
Defeat audio cache : Yes
Make use of C2 pointers : No
Read offset correction : 6
Overread into Lead-In and Lead-Out : No
Fill up missing offset samples with silence : Yes
Delete leading and trailing silent blocks : No
Null samples used in CRC calculations : Yes
Used interface : Installed external ASPI interface
Gap handling : Appended to previous track
Used output format : User Defined Encoder
Selected bitrate : 768 kBit/s
Quality : High
Add ID3 tag : No
Command line compressor : C:\Tool\Compress\FLAC\flac.exe
Additional command line options : -8 -V -T "ARTIST=%a" -T "TITLE=%t" -T "ALBUM=%g" -T "DATE=%y" -T "TRACKNUMBER=%n" -T "TOTALTRACKS=%x" -T "GENRE=%m" -T "ALBUM ARTIST=%v" -T "COMMENT=EAC V0.99 prebeta 5, Secure Mode, Test & Copy, AccurateRip, FLAC -8" %s
TOC of the extracted CD
Track | Start | Length | Start sector | End sector
---------------------------------------------------------
1 | 0:00.33 | 17:55.57 | 33 | 80714
2 | 17:56.15 | 12:33.00 | 80715 | 137189
3 | 30:29.15 | 5:19.48 | 137190 | 161162
Track 1
Filename C:\! UPLOAD\Chico Freeman Quartet - No Time Left (1993) [FLAC] {Black Saint}\01 - No Time Left.wav
Pre-gap length 0:00:02.44
Peak level 87.4 %
Track quality 100.0 %
Test CRC AC423C91
Copy CRC AC423C91
Accurately ripped (confidence 1) [3619A9AD]
Copy OK
Track 2
Filename C:\! UPLOAD\Chico Freeman Quartet - No Time Left (1993) [FLAC] {Black Saint}\02 - Uhmla.wav
Pre-gap length 0:00:03.62
Peak level 91.6 %
Track quality 100.0 %
Test CRC 75B8E353
Copy CRC 75B8E353
Accurately ripped (confidence 1) [C8F380FB]
Copy OK
Track 3
Filename C:\! UPLOAD\Chico Freeman Quartet - No Time Left (1993) [FLAC] {Black Saint}\03 - Circle.wav
Pre-gap length 0:00:03.82
Peak level 71.3 %
Track quality 100.0 %
Test CRC DA7685D4
Copy CRC DA7685D4
Accurately ripped (confidence 1) [8C3EC324]
Copy OK
All tracks accurately ripped
No errors occurred
End of status report
 
Содержание индексной карты (.CUE)
REM GENRE Jazz
REM DATE 1979
REM DISCID 1F086403
REM COMMENT "ExactAudioCopy v0.99pb5"
CATALOG 0000000000000
PERFORMER "Chico Freeman Quartet"
TITLE "No Time Left"
FILE "01 - No Time Left.wav" WAVE
TRACK 01 AUDIO
TITLE "No Time Left"
PERFORMER "Chico Freeman Quartet"
FLAGS PRE
PREGAP 00:00:33
INDEX 01 00:00:00
TRACK 02 AUDIO
TITLE "Uhmla"
PERFORMER "Chico Freeman Quartet"
FLAGS PRE
INDEX 00 17:52:10
FILE "02 - Uhmla.wav" WAVE
INDEX 01 00:00:00
TRACK 03 AUDIO
TITLE "Circle"
PERFORMER "Chico Freeman Quartet"
FLAGS PRE
INDEX 00 12:29:13
FILE "03 - Circle.wav" WAVE
INDEX 01 00:00:00
Доп. информация:
Recorded at Fontana Studios, Milan, Italy on June 8 & 9, 1979. Includes liner notes by Lee Jeske
 
Об альбоме (сборнике)
Chico Freeman (tripling on this album on tenor, soprano and bass clarinet) made many records from 1977-84, and all are worth picking up by fans of adventurous jazz. Freeman's warm tone and knowledge of more traditional areas of jazz make even his more abstract flights seem fairly accessible. Joined by vibraphonist Jay Hoggard, bassist Rick Rozie and drummer Don Moye on this somewhat obscure effort, Freeman stretches out on lengthy renditions of his originals "No Time Left," "Uhmla," and a briefer "Circle." - AMG
An urgent title, and an urgent-sounding record from Chico Freeman – one that has the reedman blowing some sharply-focused lines with lots of angular tones! Freeman plays tenor, soprano sax, and clarinet – and the group features Jay Hoggard on vibes, Rick Rozie on bass, and Famadou Don Moye on drums – the last of whom really rattles the cage nicely on the first two tracks – both long numbers driven by a bit of frenetic energy, which gets some sharper tones than usual out of Hoggard's vibes. Things lay out a bit more introspectively on the shorter last track – which has a slightly airier tone overall. - DGA
 
Состав
Chico Freeman - soprano & tenor saxophones, clarinet
Jay Hoggard - vibraphone
Rick Rozie - bass
Famoudou Don Moye - drums
Any questions -> support@pro-jazz.com. По всем вопросам пишите -> support@pro-jazz.com
11:28
187
Нет комментариев. Ваш будет первым!