Вы используете незарегистрированную версию компонента "Вкладки"!

Поиск

(Free Jazz) Charles Gayle Trio - Homeless - 1995, FLAC (image+.cue), lossless

Треклист:
Charles Gayle Trio - Homeless
Жанр: Free Jazz
Год выпуска диска: 1995
Производитель диска: Silkheart Records (SHCD116)
Источник: вот.сиди (Cohelmec)
Аудио кодек: FLAC
Тип рипа: image+.cue
Битрейт аудио: lossless
Продолжительность: 1:06:31
Трэклист:
1. Then Creations (Gayle) 19:30
2. Prayers and Fears (Gayle) 4:55
3. Homeless (Gayle) 11:37
4. Lift Every Voice (Trad, arranged Gayle) 11:55
5. Your Design (Gayle) 8:57
6. Warm Bones Cold (Gayle) 9:21
Charles Gayle tenor saxophone
Sirone bass
Dave Pleasant drums
 
Отчёт EAC
Exact Audio Copy V0.99 prebeta 5 from 4. May 2009
EAC extraction logfile from 28. April 2010, 11:32
Charles Gayle Trio / Homeless
Used drive : MATSHITABD-RE UJ-225S Adapter: 0 ID: 0
Read mode : Secure
Utilize accurate stream : Yes
Defeat audio cache : Yes
Make use of C2 pointers : No
Read offset correction : 102
Overread into Lead-In and Lead-Out : No
Fill up missing offset samples with silence : Yes
Delete leading and trailing silent blocks : No
Null samples used in CRC calculations : Yes
Used interface : Native Win32 interface for Win NT & 2000
Gap handling : Appended to previous track
Used output format : User Defined Encoder
Selected bitrate : 768 kBit/s
Quality : High
Add ID3 tag : No
Command line compressor : C:\Users\Derek\Downloads\eac-0.99pb5\FLAC\FLAC.EXE
Additional command line options : -6 -V -T "ARTIST=%a" -T "TITLE=%t" -T "ALBUM=%g" -T "DATE=%y" -T "TRACKNUMBER=%n" -T "GENRE=%m" -T "COMMENT=%e" %s -o %d
TOC of the extracted CD
Track | Start | Length | Start sector | End sector
---------------------------------------------------------
1 | 0:00.32 | 19:31.03 | 32 | 87859
2 | 19:31.35 | 4:56.25 | 87860 | 110084
3 | 24:27.60 | 11:28.35 | 110085 | 161719
4 | 35:56.20 | 12:13.27 | 161720 | 216721
5 | 48:09.47 | 8:59.20 | 216722 | 257166
6 | 57:08.67 | 9:22.23 | 257167 | 299339
Track 1
Filename C:\FLAC\Gayle, Charles\Homeless\01. Then Creations.wav
Pre-gap length 0:00:02.42
Peak level 100.0 %
Track quality 99.9 %
Test CRC CA159440
Copy CRC F60F962A
Accurately ripped (confidence 1) [63932053]
Copy OK
Track 2
Filename C:\FLAC\Gayle, Charles\Homeless\02. Prayers and Fears.wav
Pre-gap length 0:00:01.33
Peak level 95.4 %
Track quality 100.0 %
Test CRC A5F1B3C3
Copy CRC A5F1B3C3
Accurately ripped (confidence 1) [0BD08F91]
Copy OK
Track 3
Filename C:\FLAC\Gayle, Charles\Homeless\03. Homeless.wav
Pre-gap length 0:00:02.33
Peak level 92.2 %
Track quality 100.0 %
Test CRC C763A3E1
Copy CRC C763A3E1
Accurately ripped (confidence 1) [8D5258E7]
Copy OK
Track 4
Filename C:\FLAC\Gayle, Charles\Homeless\04. Lift Every Voice.wav
Pre-gap length 0:00:00.86
Peak level 86.1 %
Track quality 100.0 %
Test CRC 580F0875
Copy CRC 580F0875
Accurately ripped (confidence 1) [81D7803F]
Copy OK
Track 5
Filename C:\FLAC\Gayle, Charles\Homeless\05. Your Design.wav
Pre-gap length 0:00:02.93
Peak level 97.6 %
Track quality 99.9 %
Test CRC C9CFDB58
Copy CRC C9CFDB58
Cannot be verified as accurate (confidence 1) [0FCB69DA], AccurateRip returned [DF4D1338]
Copy OK
Track 6
Filename C:\FLAC\Gayle, Charles\Homeless\06. Warm Bones Cold.wav
Pre-gap length 0:00:01.09
Peak level 100.0 %
Track quality 100.0 %
Test CRC 2F734191
Copy CRC 2F734191
Accurately ripped (confidence 1) [293461AE]
Copy OK
5 track(s) accurately ripped
1 track(s) could not be verified as accurate
Some tracks could not be verified as accurate
No errors occurred
End of status report
 
cue
REM GENRE Free-jazz/improvisation
REM DATE 1995
REM DISCID 500F9706
REM COMMENT "ExactAudioCopy v0.99pb5"
PERFORMER "Charles Gayle Trio"
TITLE "Homeless"
FILE "01. Then Creations.wav" WAVE
TRACK 01 AUDIO
TITLE "Then Creations"
PERFORMER "Charles Gayle Trio"
PREGAP 00:00:32
INDEX 01 00:00:00
TRACK 02 AUDIO
TITLE "Prayers and Fears"
PERFORMER "Charles Gayle Trio"
INDEX 00 19:29:53
FILE "02. Prayers and Fears.wav" WAVE
INDEX 01 00:00:00
TRACK 03 AUDIO
TITLE "Homeless"
PERFORMER "Charles Gayle Trio"
INDEX 00 04:54:00
FILE "03. Homeless.wav" WAVE
INDEX 01 00:00:00
TRACK 04 AUDIO
TITLE "Lift Every Voice"
PERFORMER "Charles Gayle Trio"
INDEX 00 11:27:45
FILE "04. Lift Every Voice.wav" WAVE
INDEX 01 00:00:00
TRACK 05 AUDIO
TITLE "Your Design"
PERFORMER "Charles Gayle Trio"
INDEX 00 12:10:32
FILE "05. Your Design.wav" WAVE
INDEX 01 00:00:00
TRACK 06 AUDIO
TITLE "Warm Bones Cold"
PERFORMER "Charles Gayle Trio"
INDEX 00 08:58:13
FILE "06. Warm Bones Cold.wav" WAVE
INDEX 01 00:00:00
 
Отчёт Audiocheckera
AUDIOCHECKER v2.0 beta (build 457) - by Dester - opdester@freemail.hu
~~~~~~~~~~~~~~~~~~~~~~~~~~~~~~~~~~
-=== DO NOT EDIT THIS FILE! ===-
Path: ...\homeless
1 -=- 01. Then Creations.flac -=- CDDA (100%)
2 -=- 02. Prayers and Fears.flac -=- CDDA (100%)
3 -=- 03. Homeless.flac -=- CDDA (100%)
4 -=- 04. Lift Every Voice.flac -=- CDDA (100%)
5 -=- 05. Your Design.flac -=- CDDA (100%)
6 -=- 06. Warm Bones Cold.flac -=- MPEG (95%)
Summary 84,17% CDDA
188643204
Непонятно, почему Audiochecker прицепился к последней композиции, тут все спектры похожи, и выглядят не очень хорошо, но вроде есть отчёт об извлечении файлов с диска.. На всякий случай привожу все спектры
 
Спектры
Any questions -> support@pro-jazz.com. По всем вопросам пишите -> support@pro-jazz.com
23:42
159
Нет комментариев. Ваш будет первым!