Вы используете незарегистрированную версию компонента "Вкладки"!

Поиск

(Free Jazz) Charles Gayle Trio - Forgiveness - 2008, FLAC (tracks+.cue), lossless

Треклист:
Charles Gayle Trio - Forgiveness
Жанр: Free Jazz
Год выпуска диска: 2008
Производитель диска: Not Two Records (MW 805-2)
Аудио кодек: FLAC
Источник: моя пластинка
Тип рипа: tracks+.cue
Битрейт аудио: lossless
Продолжительность: 1:09:01
Трэклист:
1. Living Waters (Charles Gayle) [09:02]
2. Glory, Glory, Glory (Charles Gayle) [07:51]
3. Holy Birth (Charles Gayle) [16:41]
4. Confess (Charles Gayle) [12:33]
5. Song To Thee (Charles Gayle) [07:51]
6. Giant Steps (John Coltrane) [06:29]
7. Forgiveness (Traditional) [08:33]
Recorded at JAZZGA CLUB, Lodz, Poland on April 25, 2007
Charles Gayle - saxophone
Hillard Greene - bass
Klaus Kugel - drums
 
Отчёт EAC
Exact Audio Copy V0.99 prebeta 4 from 23. January 2008
Отчёт EAC об извлечении, выполненном 9. июня 2010, 19:26
Charles Gayle trio / Forgiveness
Дисковод: ASUS DRW-20B1LT Adapter: 2 ID: 0
Режим чтения : Достоверность
Использование точного потока : Да
Отключение кэша аудио : Да
Использование указателей C2 : Нет
Коррекция смещения при чтении : 6
Способность читать области Lead-in и Lead-out : Нет
Заполнение пропущенных сэмплов тишиной : Да
Удаление блоков с тишиной в начале и конце : Нет
При вычислениях CRC использовались нулевые сэмплы : Да
Интерфейс : Встроенный Win32-интерфейс для Win NT/2000
Обработка зазоров : Добавлено к предыдущему треку
Выходной формат : Пользовательский кодировщик
Выбранный битрейт : 768 kBit/s
Качество : Высокий
Добавление ID3-тэга : Нет
Утилита сжатия : C:\Program Files\Exact Audio Copy\FLAC\FLAC.EXE
Дополнительные параметры : -8 -V -T "ARTIST=%a" -T "TITLE=%t" -T "ALBUM=%g" -T "DATE=%y" -T "TRACKNUMBER=%n" -T "GENRE=%m" -T "COMMENT=EAC FLAC -8" %s
TOC извлечённого CD
Трек | Старт | Длительность | Начальный сектор | Конечный сектор
---------------------------------------------------------------------
1 | 0:00.00 | 9:02.22 | 0 | 40671
2 | 9:02.22 | 7:51.36 | 40672 | 76032
3 | 16:53.58 | 16:40.60 | 76033 | 151092
4 | 33:34.43 | 12:33.21 | 151093 | 207588
5 | 46:07.64 | 7:50.26 | 207589 | 242864
6 | 53:58.15 | 6:28.73 | 242865 | 272037
7 | 60:27.13 | 8:33.43 | 272038 | 310555
Трек 1
Имя файла H:\черновики\forgiveness\01 - Living Waters.wav
Длина предзазора 0:00:02.00
Пиковый уровень 96.6 %
Качество трека 100.0 %
CRC теста 65591FAE
CRC копии 65591FAE
Точное извлечение (достоверность 1) [E2160E68]
Копирование... OK
Трек 2
Имя файла H:\черновики\forgiveness\02 - Glory, Glory, Glory.wav
Пиковый уровень 96.6 %
Качество трека 100.0 %
CRC теста 56703FFD
CRC копии 56703FFD
Точное извлечение (достоверность 1) [C7D2C2D8]
Копирование... OK
Трек 3
Имя файла H:\черновики\forgiveness\03 - Holy Birth.wav
Пиковый уровень 96.6 %
Качество трека 100.0 %
CRC теста 9A36187D
CRC копии 9A36187D
Точное извлечение (достоверность 1) [9AEB8F9E]
Копирование... OK
Трек 4
Имя файла H:\черновики\forgiveness\04 - Confess.wav
Пиковый уровень 96.6 %
Качество трека 100.0 %
CRC теста AECE46D2
CRC копии AECE46D2
Точное извлечение (достоверность 1) [64151D6B]
Копирование... OK
Трек 5
Имя файла H:\черновики\forgiveness\05 - Song To Three.wav
Пиковый уровень 96.6 %
Качество трека 100.0 %
CRC теста E16B16FC
CRC копии E16B16FC
Точное извлечение (достоверность 1) [C7BCE71C]
Копирование... OK
Трек 6
Имя файла H:\черновики\forgiveness\06 - Giant Steps.wav
Пиковый уровень 96.6 %
Качество трека 100.0 %
CRC теста B4754FC3
CRC копии B4754FC3
Точное извлечение (достоверность 1) [927E41BD]
Копирование... OK
Трек 7
Имя файла H:\черновики\forgiveness\07 - Forgiveness.wav
Пиковый уровень 96.6 %
Качество трека 100.0 %
CRC теста FD2CA8D6
CRC копии FD2CA8D6
Точное извлечение (достоверность 1) [852D12B4]
Копирование... OK
Все треки извлечены точно
Ошибок не произошло
Конец отчёта
 
cue
REM GENRE Jazz
REM DATE 2008
REM DISCID 54102C07
REM COMMENT "ExactAudioCopy v0.99pb4"
PERFORMER "Charles Gayle trio"
TITLE "Forgiveness"
FILE "01 - Living Waters.wav" WAVE
TRACK 01 AUDIO
TITLE "Living Waters"
PERFORMER "Charles Gayle trio"
INDEX 01 00:00:00
FILE "02 - Glory, Glory, Glory.wav" WAVE
TRACK 02 AUDIO
TITLE "Glory, Glory, Glory"
PERFORMER "Charles Gayle trio"
INDEX 01 00:00:00
FILE "03 - Holy Birth.wav" WAVE
TRACK 03 AUDIO
TITLE "Holy Birth"
PERFORMER "Charles Gayle trio"
INDEX 01 00:00:00
FILE "04 - Confess.wav" WAVE
TRACK 04 AUDIO
TITLE "Confess"
PERFORMER "Charles Gayle trio"
INDEX 01 00:00:00
FILE "05 - Song To Three.wav" WAVE
TRACK 05 AUDIO
TITLE "Song To Three"
PERFORMER "Charles Gayle trio"
INDEX 01 00:00:00
FILE "06 - Giant Steps.wav" WAVE
TRACK 06 AUDIO
TITLE "Giant Steps"
PERFORMER "Charles Gayle trio"
INDEX 01 00:00:00
FILE "07 - Forgiveness.wav" WAVE
TRACK 07 AUDIO
TITLE "Forgiveness"
PERFORMER "Charles Gayle trio"
INDEX 01 00:00:00
Any questions -> support@pro-jazz.com. По всем вопросам пишите -> support@pro-jazz.com
23:39
162
Нет комментариев. Ваш будет первым!