Вы используете незарегистрированную версию компонента "Вкладки"!

Поиск

(Free Jazz) Charles Gayle - Kingdom Come - 1994, APE (image+.cue), lossless

(Free Jazz) Charles Gayle - Kingdom Come - 1994, APE (image+.cue), lossless
Треклист:
Charles Gayle - Kingdom Come
Жанр: Free Jazz
Год выпуска диска: 1994
Производитель диска: Knitting Factory
Аудио кодек: APE
Тип рипа: image+.cue
Битрейт аудио: lossless
Продолжительность: 74:12
Трэклист:
1. Seven Days 4:09
2. Lord Lord 21:17
3. Beset Souls 9:02
4. His Crowning Grace 12:59
5. Redeemed 5:17
6. Anthem To Eternity 11:24
7. Yokes 10:02
Состав:
Charles Gayle-ts,p
William Parker-b
Sunny Murray-dr
 
отчет EAC
Exact Audio Copy V0.99 prebeta 4 from 23. January 2008
Отчёт EAC об извлечении, выполненном 20. апреля 2009, 10:28
Charles Gayle / Kingdom Come
Дисковод: TSSTcorpCDDVDW SH-S203D Adapter: 3 ID: 0
Режим чтения : Достоверность
Использование точного потока : Да
Отключение кэша аудио : Да
Использование указателей C2 : Нет
Коррекция смещения при чтении : 6
Способность читать области Lead-in и Lead-out : Нет
Заполнение пропущенных сэмплов тишиной : Да
Удаление блоков с тишиной в начале и конце : Нет
При вычислениях CRC использовались нулевые сэмплы : Да
Интерфейс : Установленный внешний ASPI-интерфейс
Выходной формат : Внутренние WAV-операции
Формат сэмплов : 44.100 Гц; 16 бит; стерео
TOC извлечённого CD
Трек | Старт | Длительность | Начальный сектор | Конечный сектор
---------------------------------------------------------------------
1 | 0:00.00 | 4:09.40 | 0 | 18714
2 | 4:09.40 | 21:17.22 | 18715 | 114511
3 | 25:26.62 | 9:03.25 | 114512 | 155261
4 | 34:30.12 | 13:00.05 | 155262 | 213766
5 | 47:30.17 | 5:17.38 | 213767 | 237579
6 | 52:47.55 | 11:24.17 | 237580 | 288896
7 | 64:11.72 | 10:02.15 | 288897 | 334061
Характеристики диапазона извлечения и сообщения об ошибках
Выбранный диапазон
Имя файла F:\FOS\Music\Charles Gayle - Kingdom Come\Charles Gayle - Kingdom Come.wav
Пиковый уровень 100.0 %
Качество диапазона 100.0 %
CRC копии FA2DEB42
Копирование... OK
Ошибок не произошло
Конец отчёта
Any questions -> support@pro-jazz.com. По всем вопросам пишите -> support@pro-jazz.com
10:16
210
Нет комментариев. Ваш будет первым!