Вы используете незарегистрированную версию компонента "Вкладки"!

Поиск

(Free Jazz, Chamber Jazz) Ivo Perelman - Rosie Hertlein - Dominic Duval / Near To The Wild Heart - 2010, FLAC (tracks+.cue), lossless

(Free Jazz, Chamber Jazz) Ivo Perelman - Rosie Hertlein - Dominic Duval / Near To The Wild Heart - 2010, FLAC (tracks+.cue), lossless
Треклист:
Ivo Perelman - Rosie Hertlein - Dominic Duval / Near To The Wild Heart
Жанр: Free Jazz, Chamber Jazz
Страна-производитель диска: Poland
Год издания: 2010
Издатель (лейбл): NotTwo
Номер по каталогу: MW 833-2
Аудиокодек: FLAC (*.flac)
Тип рипа: tracks+.cue
Битрейт аудио: lossless
Продолжительность: 59:56
Источник (релизер): CD
Наличие сканов в содержимом раздачи: да
Треклист:
1. Part 1 (14:10)
2. Part 2 (01:42)
3. Part 3 (10:48)
4. Part 4 (07:09)
5. Part 5 (09:07)
6. Part 6 (12:49)
7. Part 7 (02:17)
8. Part 8 (01:54)
 
Лог создания рипа
Exact Audio Copy V1.0 beta 2 from 29. April 2011
EAC extraction logfile from 28. February 2013, 21:29
Perelman, Hertlein, Duval / Near To The Wild Heart
Used drive : Optiarc DVD RW AD-5280S Adapter: 1 ID: 1
Read mode : Secure
Utilize accurate stream : Yes
Defeat audio cache : Yes
Make use of C2 pointers : No
Read offset correction : 48
Overread into Lead-In and Lead-Out : No
Fill up missing offset samples with silence : Yes
Delete leading and trailing silent blocks : No
Null samples used in CRC calculations : Yes
Used interface : Native Win32 interface for Win NT & 2000
Gap handling : Appended to previous track
Used output format : User Defined Encoder
Selected bitrate : 128 kBit/s
Quality : High
Add ID3 tag : No
Command line compressor : C:\Program Files\FLAC\flac.exe
Additional command line options : -V -8 -T "Genre=%genre%" -T "Artist=%artist%" -T "Title=%title%" -T "Album=%albumtitle%" -T "Date=%year%" -T "Tracknumber=%tracknr%" -T "Comment=%comment%" %source%
TOC of the extracted CD
Track | Start | Length | Start sector | End sector
---------------------------------------------------------
1 | 0:00.00 | 14:10.27 | 0 | 63776
2 | 14:10.27 | 1:42.26 | 63777 | 71452
3 | 15:52.53 | 10:48.12 | 71453 | 120064
4 | 26:40.65 | 7:09.03 | 120065 | 152242
5 | 33:49.68 | 9:06.41 | 152243 | 193233
6 | 42:56.34 | 12:49.03 | 193234 | 250911
7 | 55:45.37 | 2:16.53 | 250912 | 261164
8 | 58:02.15 | 1:54.31 | 261165 | 269745
Track 1
Filename C:\Perelman, Hertlein, Duval (2010) - Near To The Wild Heart\01 - Part 1.wav
Pre-gap length 0:00:02.00
Peak level 100.0 %
Extraction speed 2.9 X
Track quality 100.0 %
Test CRC B26A9EC5
Copy CRC B26A9EC5
Track not present in AccurateRip database
Copy OK
Track 2
Filename C:\Perelman, Hertlein, Duval (2010) - Near To The Wild Heart\02 - Part 2.wav
Peak level 100.0 %
Extraction speed 2.7 X
Track quality 100.0 %
Test CRC A24FEDB6
Copy CRC A24FEDB6
Track not present in AccurateRip database
Copy OK
Track 3
Filename C:\Perelman, Hertlein, Duval (2010) - Near To The Wild Heart\03 - Part 3.wav
Peak level 100.0 %
Extraction speed 3.8 X
Track quality 100.0 %
Test CRC 2ED01832
Copy CRC 2ED01832
Track not present in AccurateRip database
Copy OK
Track 4
Filename C:\Perelman, Hertlein, Duval (2010) - Near To The Wild Heart\04 - Part 4.wav
Peak level 100.0 %
Extraction speed 4.2 X
Track quality 100.0 %
Test CRC FE1A30E0
Copy CRC FE1A30E0
Track not present in AccurateRip database
Copy OK
Track 5
Filename C:\Perelman, Hertlein, Duval (2010) - Near To The Wild Heart\05 - Part 5.wav
Peak level 100.0 %
Extraction speed 4.6 X
Track quality 100.0 %
Test CRC 88A51463
Copy CRC 88A51463
Track not present in AccurateRip database
Copy OK
Track 6
Filename C:\Perelman, Hertlein, Duval (2010) - Near To The Wild Heart\06 - Part 6.wav
Peak level 100.0 %
Extraction speed 5.1 X
Track quality 100.0 %
Test CRC 7D604002
Copy CRC 7D604002
Track not present in AccurateRip database
Copy OK
Track 7
Filename C:\Perelman, Hertlein, Duval (2010) - Near To The Wild Heart\07 - Part 7.wav
Peak level 100.0 %
Extraction speed 4.5 X
Track quality 100.0 %
Test CRC CEB1077B
Copy CRC CEB1077B
Track not present in AccurateRip database
Copy OK
Track 8
Filename C:\Perelman, Hertlein, Duval (2010) - Near To The Wild Heart\08 - Part 8.wav
Peak level 100.0 %
Extraction speed 4.3 X
Track quality 100.0 %
Test CRC 9A7AACC1
Copy CRC 9A7AACC1
Track not present in AccurateRip database
Copy OK
None of the tracks are present in the AccurateRip database
No errors occurred
End of status report
==== Log checksum 9AD2C48D1DB6AEB10FB7B0ECDF4D4FA640E574BEE95F27AB13EB655556C9B063 ====
 
Содержание индексной карты (.CUE)
REM GENRE Jazz
REM DATE 2010
REM DISCID 6C0E0C08
REM COMMENT "ExactAudioCopy v1.0b2"
PERFORMER " Perelman, Hertlein, Duval"
TITLE "Near To The Wild Heart"
FILE "01 - Part 1.wav" WAVE
TRACK 01 AUDIO
TITLE "Part 1"
PERFORMER " Perelman, Hertlein, Duval"
INDEX 01 00:00:00
FILE "02 - Part 2.wav" WAVE
TRACK 02 AUDIO
TITLE "Part 2"
PERFORMER " Perelman, Hertlein, Duval"
INDEX 01 00:00:00
FILE "03 - Part 3.wav" WAVE
TRACK 03 AUDIO
TITLE "Part 3"
PERFORMER " Perelman, Hertlein, Duval"
INDEX 01 00:00:00
FILE "04 - Part 4.wav" WAVE
TRACK 04 AUDIO
TITLE "Part 4"
PERFORMER " Perelman, Hertlein, Duval"
INDEX 01 00:00:00
FILE "05 - Part 5.wav" WAVE
TRACK 05 AUDIO
TITLE "Part 5"
PERFORMER " Perelman, Hertlein, Duval"
INDEX 01 00:00:00
FILE "06 - Part 6.wav" WAVE
TRACK 06 AUDIO
TITLE "Part 6"
PERFORMER " Perelman, Hertlein, Duval"
INDEX 01 00:00:00
FILE "07 - Part 7.wav" WAVE
TRACK 07 AUDIO
TITLE "Part 7"
PERFORMER " Perelman, Hertlein, Duval"
INDEX 01 00:00:00
FILE "08 - Part 8.wav" WAVE
TRACK 08 AUDIO
TITLE "Part 8"
PERFORMER " Perelman, Hertlein, Duval"
INDEX 01 00:00:00
 
Доп. информация
Recorded, mixed and mastered by Jim Clouse on March 2009 at Park West Studios, Brooklyn, NY
 
Об альбоме (сборнике)
For nearly two decades, Brazilian-born and Brooklyn-based saxist Ivo Perelman has been evolving his own path of improvised jazz, playing solo, in duos, trios & quartets with a number of downtown's best musicians. One of Ivo's most constant companions is contrabassist Dom Duval who has recorded on perhaps a dozen of Ivo's previous duo & trio CD's. Violinist Rosie Hertlein has also recorded and performed with Ivo on occasion and is yet another local talent who has knocked me out whenever I've heard her play although she remains beneath the radar screen of recognition. Over the past decade, Ivo has also developed as a painter, helping him to establish himself in a different art scene. His wonderful and evocative works have adorned a number of his recent discs, this one has an especially appropriate cover. Tenor sax, violin and contrabass. An interesting combination which works so well here. The trio continually weave their wares around one another magically, swirling bowed notes with vocal-like sax sounds, ever distinctive, pure and often intense. Rosie has a way of matching Ivo's middle register just right while Dominic holds the low end down and adds his own depth, warmth and richness. This is a most exciting dialogue that keeps developing, shifting, bending, twisting and coming together time after time. There is a sense of calm at the center of the storm, there is also an aura of mysterious ghosts floating throughout like those Ayler-with-strings moments. There are also those occasional eruptions and well-selected screams which are perfectly shadowed by the strings as they navigate the rapids washing over all three members of this grand trio with one voice. The further out this trio goes, the more they remain in the same orbit circling around one another in balanced, elliptical threads. Beauty is a rare thing and this discs is a rare treat. ~ bruce lee gallanter, downtownmusicgallery.com
 
Состав
Ivo Perelman - tenor sax
Rosie Hertlein - violin
Dominic Duval - acoustic bass
Any questions -> support@pro-jazz.com. По всем вопросам пишите -> support@pro-jazz.com
09:39
149
Нет комментариев. Ваш будет первым!