Вы используете незарегистрированную версию компонента "Вкладки"!

Поиск

(Free Jazz) Cecil Taylor / Bill Dixon / Tony Oxley - Taylor/Dixon/Oxley - 2002, FLAC (tracks+.cue), lossless

Треклист:
Cecil Taylor / Bill Dixon / Tony Oxley - Taylor/Dixon/Oxley
Жанр: Free Jazz
Год выпуска диска: 2002
Производитель диска: Victo Records (VICTO cd082)
Источник: другой трекер (doughins)
Аудио кодек: FLAC
Тип рипа: tracks+.cue
Битрейт аудио: lossless
Продолжительность: 50:56
Трэклист:
1. B + T + C 41’55”
2. T ÷ C x B 7’41”
3. C x B x T + T 1’21”
Toutes les musiques sont de CECIL TAYLOR, BILL DIXON et TONY OXLEY
Enregistré « LIVE » au 19ième Festival International de Musique Actuelle de Victoriaville le 19 mai 2002
CECIL TAYLOR: piano
BILL DIXON: trompette, bugle
TONY OXLEY: batterie, percussion
 
Лог создания рипа
EAC extraction logfile from 24. July 2009, 12:55 for CD
Cecil Taylor-Bill Dixon-Tony Oxley / Cecil Taylor-Bill Dixon-Tony Oxley
Used drive : PBDS CDRWDVD DH-48C2S Adapter: 1 ID: 1
Read mode : Secure with NO C2, accurate stream, disable cache
Read offset correction : 6
Overread into Lead-In and Lead-Out : No
Used output format : C:\Program Files\FLAC\flac.exe (User Defined Encoder)
128 kBit/s
Additional command line options : -V -8 -T "artist=%a" -T "title=%t" -T "album=%g" -T "date=%y" -T "tracknumber=%n" -T "genre=%m" %s
Other options :
Fill up missing offset samples with silence : Yes
Delete leading and trailing silent blocks : No
Native Win32 interface for Win NT & 2000
Track 1
Filename D:\DOWNLOADS\_UPLOADS\Cecil Taylor-Bill Dixon-Tony Oxley - Cecil Taylor-Bill Dixon-Tony Oxley (2002) [FLAC]\01 - B + T + C.wav
Pre-gap length 0:00:02.00
Peak level 99.8 %
Track quality 100.0 %
Test CRC BA923990
Copy CRC BA923990
Copy OK
Track 2
Filename D:\DOWNLOADS\_UPLOADS\Cecil Taylor-Bill Dixon-Tony Oxley - Cecil Taylor-Bill Dixon-Tony Oxley (2002) [FLAC]\02 - T - C x B.wav
Peak level 92.4 %
Track quality 100.0 %
Test CRC 66E558A6
Copy CRC 66E558A6
Copy OK
Track 3
Filename D:\DOWNLOADS\_UPLOADS\Cecil Taylor-Bill Dixon-Tony Oxley - Cecil Taylor-Bill Dixon-Tony Oxley (2002) [FLAC]\03 - C x B x T + T.wav
Peak level 92.6 %
Track quality 100.0 %
Test CRC 2CCC23A1
Copy CRC 2CCC23A1
Copy OK
No errors occured
End of status report
 
Содержание индексной карты (.CUE)
REM DATE 2002
REM DISCID 280BF003
REM COMMENT "ExactAudioCopy v0.95b3"
PERFORMER "Cecil Taylor-Bill Dixon-Tony Oxley"
TITLE "Cecil Taylor-Bill Dixon-Tony Oxley"
FILE "Cecil Taylor-Bill Dixon-Tony Oxley - Cecil Taylor-Bill Dixon-Tony Oxley (2002) [FLAC]\01 - B + T + C.wav" WAVE
TRACK 01 AUDIO
TITLE "B + T + C"
PERFORMER "Cecil Taylor-Bill Dixon-Tony Oxley"
INDEX 01 00:00:00
FILE "Cecil Taylor-Bill Dixon-Tony Oxley - Cecil Taylor-Bill Dixon-Tony Oxley (2002) [FLAC]\02 - T - C x B.wav" WAVE
TRACK 02 AUDIO
TITLE "T - C x B"
PERFORMER "Cecil Taylor-Bill Dixon-Tony Oxley"
INDEX 01 00:00:00
FILE "Cecil Taylor-Bill Dixon-Tony Oxley - Cecil Taylor-Bill Dixon-Tony Oxley (2002) [FLAC]\03 - C x B x T + T.wav" WAVE
TRACK 03 AUDIO
TITLE "C x B x T + T"
PERFORMER "Cecil Taylor-Bill Dixon-Tony Oxley"
INDEX 01 00:00:00
 
Лог проверки качества
AUDIOCHECKER v2.0 beta (build 457) - by Dester - opdester@freemail.hu
~~~~~~~~~~~~~~~~~~~~~~~~~~~~~~~~~~
-=== DO NOT EDIT THIS FILE! ===-
Path: ...\cecil taylor bill dixon tony oxley 2002
1 -=- 01 - B + T + C.flac -=- CDDA (100%)
2 -=- 02 - T - C x B.flac -=- CDDA (100%)
3 -=- 03 - C x B x T + T.flac -=- ERROR
Summary 100,00% CDDA
5174196
 
3. C x B x T + T - спектр
Any questions -> support@pro-jazz.com. По всем вопросам пишите -> support@pro-jazz.com
21:59
229
Нет комментариев. Ваш будет первым!