Вы используете незарегистрированную версию компонента "Вкладки"!

Поиск

(Free Jazz) [CD] Yells at Eels (Dennis Gonzalez, Aaron Gonzalez, Stefan Gonzalez) - In Quiet Waters - 2014, FLAC (tracks+.cue), lossless

(Free Jazz) [CD] Yells at Eels (Dennis Gonzalez, Aaron Gonzalez, Stefan Gonzalez) - In Quiet Waters - 2014, FLAC (tracks+.cue), lossless
Треклист:
Yells at Eels / In Quiet Waters
Жанр: Free Jazz
Носитель: CD
Страна-производитель диска (релиза): Poland
Год издания: 2014
Издатель (лейбл): For Tune
Номер по каталогу: 0046 033
Аудиокодек: FLAC (*.flac)
Тип рипа: tracks+.cue
Битрейт аудио: lossless
Продолжительность: 1:04:38
Источник (релизер): я
Наличие сканов в содержимом раздачи: да
Треклист:
1. Lorca 7:11
2. In Quiet Waters the Devils Are Living (Yells at Eels) 3:36
3. Hymn for Julius Hemphill 14:01
4. Muse 7:59
5. Restless Debauchery I (Stefan González) 2:23
6. Upper Arm 4:47
7. Document for Walt Dickerson 9:34
8. Lower Arm 5:10
9. Perpetual Gallows for Consecutive Selves (Aaron González) 7:44
10. Restless Debauchery II (Stefan González) 2:13
All compositions by Dennis González except where indicated.
Recorded January 18th, 2013 and March 28th, 2013 at Yells at Eels Studio in Dallas, and live January 26th, 2013 at a private home in the part of Dallas – Deep Ellum.
Dennis González – Cornet, C Trumpet, Button Accordion, Charango, Gongs, Bells, Sleigh Bells, Chehalis Rattle, Voice
Aaron González – Double Bass, Electric Bass, Gong, Bells, Voice, Vocal (10)
Stefan González – Drums, Marimba, Steel Coil, Gong, Meditation Bells, Vibes, Udu Drum, Dumbek, Afuche, Voice, Vocal (10)
 
Лог создания рипа
Exact Audio Copy V1.0 beta 6 from 9. April 2015
EAC extraction logfile from 17. June 2015, 17:48
Yells at Eels / In Quiet Waters
Used drive : SlimtypeeNAU508 5 Adapter: 1 ID: 1
Read mode : Secure
Utilize accurate stream : Yes
Defeat audio cache : Yes
Make use of C2 pointers : No
Read offset correction : 6
Overread into Lead-In and Lead-Out : No
Fill up missing offset samples with silence : Yes
Delete leading and trailing silent blocks : No
Null samples used in CRC calculations : Yes
Used interface : Native Win32 interface for Win NT & 2000
Gap handling : Appended to previous track
Used output format : User Defined Encoder
Selected bitrate : 768 kBit/s
Quality : High
Add ID3 tag : No
Command line compressor : C:\Program Files (x86)\Exact Audio Copy\Flac\flac.exe
Additional command line options : -8 -V -T "ARTIST=%artist%" -T "TITLE=%title%" -T "ALBUM=%albumtitle%" -T "DATE=%year%" -T "TRACKNUMBER=%tracknr%" -T "TOTALTRACKS=%numtracks%" -T "GENRE=%genre%" -T "ALBUMARTIST=%albumartist%" -T "ALBUM ARTIST=%albumartist%" -T "COMMENT=EAC Secure Mode, Test & Copy, AccurateRip, FLAC -8" %source%
TOC of the extracted CD
Track | Start | Length | Start sector | End sector
---------------------------------------------------------
1 | 0:00.00 | 7:11.00 | 0 | 32324
2 | 7:11.00 | 3:36.00 | 32325 | 48524
3 | 10:47.00 | 14:01.00 | 48525 | 111599
4 | 24:48.00 | 7:59.00 | 111600 | 147524
5 | 32:47.00 | 2:23.00 | 147525 | 158249
6 | 35:10.00 | 4:47.00 | 158250 | 179774
7 | 39:57.00 | 9:34.00 | 179775 | 222824
8 | 49:31.00 | 5:10.00 | 222825 | 246074
9 | 54:41.00 | 7:44.00 | 246075 | 280874
10 | 62:25.00 | 2:13.00 | 280875 | 290849
Track 1
Filename C:\EAC rips\01 - Lorca.wav
Pre-gap length 0:00:02.00
Peak level 81.9 %
Extraction speed 1.1 X
Track quality 100.0 %
Test CRC E8BA1405
Copy CRC E8BA1405
Accurately ripped (confidence 1) [7618C8D2] (AR v2)
Copy OK
Track 2
Filename C:\EAC rips\02 - In Quiet Waters the Devils Are Living.wav
Peak level 99.9 %
Extraction speed 1.2 X
Track quality 100.0 %
Test CRC CC15DF25
Copy CRC CC15DF25
Accurately ripped (confidence 1) [AEBBD8C5] (AR v2)
Copy OK
Track 3
Filename C:\EAC rips\03 - Hymn for Julius Hemphill.wav
Peak level 100.0 %
Extraction speed 1.6 X
Track quality 100.0 %
Test CRC 3D32BD03
Copy CRC 3D32BD03
Accurately ripped (confidence 1) [BFE5AED0] (AR v2)
Copy OK
Track 4
Filename C:\EAC rips\04 - Muse.wav
Peak level 100.0 %
Extraction speed 1.8 X
Track quality 100.0 %
Test CRC CCC510EB
Copy CRC CCC510EB
Accurately ripped (confidence 1) [27F7F81B] (AR v2)
Copy OK
Track 5
Filename C:\EAC rips\05 - Restless Debauchery I.wav
Peak level 100.0 %
Extraction speed 1.6 X
Track quality 100.0 %
Test CRC 85D4484F
Copy CRC 85D4484F
Accurately ripped (confidence 1) [962B362D] (AR v2)
Copy OK
Track 6
Filename C:\EAC rips\06 - Upper Arm.wav
Peak level 92.1 %
Extraction speed 1.8 X
Track quality 100.0 %
Test CRC C502D2BD
Copy CRC C502D2BD
Accurately ripped (confidence 1) [3142BBB5] (AR v2)
Copy OK
Track 7
Filename C:\EAC rips\07 - Document for Walt Dickerson.wav
Peak level 100.0 %
Extraction speed 2.0 X
Track quality 99.9 %
Test CRC 3B234BE9
Copy CRC 3B234BE9
Accurately ripped (confidence 1) [1C33FDC3] (AR v2)
Copy OK
Track 8
Filename C:\EAC rips\08 - Lower Arm.wav
Peak level 99.9 %
Extraction speed 2.1 X
Track quality 100.0 %
Test CRC 2E68E80E
Copy CRC 2E68E80E
Accurately ripped (confidence 1) [B921CAB7] (AR v2)
Copy OK
Track 9
Filename C:\EAC rips\09 - Perpetual Gallows for Consecutive Selves.wav
Peak level 99.9 %
Extraction speed 2.2 X
Track quality 100.0 %
Test CRC D53C1C33
Copy CRC D53C1C33
Accurately ripped (confidence 1) [45CFD8D0] (AR v2)
Copy OK
Track 10
Filename C:\EAC rips\10 - Restless Debauchery II.wav
Peak level 100.0 %
Extraction speed 2.0 X
Track quality 100.0 %
Test CRC 82536DAF
Copy CRC 82536DAF
Accurately ripped (confidence 1) [FCC4D4D9] (AR v2)
Copy OK
All tracks accurately ripped
No errors occurred
End of status report
---- CUETools DB Plugin V2.1.6
[CTDB TOCID: TqtJpaL2WwSKi2o7_i80n2gvRQI-] found
Submit result: already submitted
Track | CTDB Status
1 | (2/2) Accurately ripped
2 | (2/2) Accurately ripped
3 | (2/2) Accurately ripped
4 | (2/2) Accurately ripped
5 | (2/2) Accurately ripped
6 | (2/2) Accurately ripped
7 | (2/2) Accurately ripped
8 | (2/2) Accurately ripped
9 | (2/2) Accurately ripped
10 | (2/2) Accurately ripped
==== Log checksum 1BF1D699B69C0E6208B73C3B0F1D9DAB5FC8AF553684934A06446697ABB7DF0C ====
 
Содержание индексной карты (.CUE)
REM GENRE "For Tune 0046 033"
REM DATE 2014
REM DISCID 9D0F260A
REM COMMENT "ExactAudioCopy v1.0b6"
PERFORMER "Yells at Eels"
TITLE "In Quiet Waters"
FILE "01 - Lorca.wav" WAVE
TRACK 01 AUDIO
TITLE "Lorca"
PERFORMER "Yells at Eels"
ISRC PLH161400413
INDEX 01 00:00:00
FILE "02 - In Quiet Waters the Devils Are Living.wav" WAVE
TRACK 02 AUDIO
TITLE "In Quiet Waters the Devils Are Living"
PERFORMER "Yells at Eels"
ISRC PLH161400414
INDEX 01 00:00:00
FILE "03 - Hymn for Julius Hemphill.wav" WAVE
TRACK 03 AUDIO
TITLE "Hymn for Julius Hemphill"
PERFORMER "Yells at Eels"
ISRC PLH161400415
INDEX 01 00:00:00
FILE "04 - Muse.wav" WAVE
TRACK 04 AUDIO
TITLE "Muse"
PERFORMER "Yells at Eels"
ISRC PLH161400416
INDEX 01 00:00:00
FILE "05 - Restless Debauchery I.wav" WAVE
TRACK 05 AUDIO
TITLE "Restless Debauchery I"
PERFORMER "Yells at Eels"
ISRC PLH161400417
INDEX 01 00:00:00
FILE "06 - Upper Arm.wav" WAVE
TRACK 06 AUDIO
TITLE "Upper Arm"
PERFORMER "Yells at Eels"
ISRC PLH161400418
INDEX 01 00:00:00
FILE "07 - Document for Walt Dickerson.wav" WAVE
TRACK 07 AUDIO
TITLE "Document for Walt Dickerson"
PERFORMER "Yells at Eels"
ISRC PLH161400419
INDEX 01 00:00:00
FILE "08 - Lower Arm.wav" WAVE
TRACK 08 AUDIO
TITLE "Lower Arm"
PERFORMER "Yells at Eels"
ISRC PLH161400420
INDEX 01 00:00:00
FILE "09 - Perpetual Gallows for Consecutive Selves.wav" WAVE
TRACK 09 AUDIO
TITLE "Perpetual Gallows for Consecutive Selves"
PERFORMER "Yells at Eels"
ISRC PLH161400421
INDEX 01 00:00:00
FILE "10 - Restless Debauchery II.wav" WAVE
TRACK 10 AUDIO
TITLE "Restless Debauchery II"
PERFORMER "Yells at Eels"
ISRC PLH161400422
INDEX 01 00:00:00
По всем вопросам пишите личное сообщение пользователю M0p94ok.
13:57
145
Нет комментариев. Ваш будет первым!