Вы используете незарегистрированную версию компонента "Вкладки"!

Поиск

(free jazz) [cd] Waclaw Zimpel To Tu Orchestra - Nature Moves (2014), FLAC (tracks+.cue), lossless

(free jazz) [cd] Waclaw Zimpel To Tu Orchestra - Nature Moves (2014), FLAC (tracks+.cue), lossless
Треклист:
(free jazz) [cd] Waclaw Zimpel To Tu Orchestra - Nature Moves (2014), FLAC (tracks+.cue), lossless


Waclaw Zimpel To Tu Orchestra - Nature Moves (2014)

Жанр: free jazz
Год выпуска: 2014
Издатель (лейбл):ForTune / 0036
Формат: FLAC (tracks+.cue)
Битрейт аудио: lossless
Продолжительность 1`16`36
Источник: what.cd
Wacław Zimpel - A, Bb & alto clarinets
Paweł Postaremczak - tenor & soprano saxophones
Dominik Strycharski - alto & tenor flutes
Jacek Kita - upright piano
Maciej Cierliński - hurdy-gurdy
Wojtek Traczyk - double bass
Mike Majkowski - double bass
Paweł Szpura - drums
Hubert Zemler - drums, metallophone

tracks

1. Cycles 28:43
Nature Moves:
2. River 7:18
3. Dry Landscape 8:28
4. Under Surface 9:54
North:
5. Winter Walk 6:25
6. Where the Prairie Meets the Mountains 15:42


 
.log
Exact Audio Copy V1.0 beta 4 from 7. December 2014
EAC extraction logfile from 25. February 2015, 17:00
Wacław Zimpel To Tu Orchestra / Nature Moves
Used drive : TSSTcorpCDDVDW SE-208DB Adapter: 1 ID: 1
Read mode : Burst
Read offset correction : 6
Overread into Lead-In and Lead-Out : No
Fill up missing offset samples with silence : Yes
Delete leading and trailing silent blocks : No
Null samples used in CRC calculations : Yes
Used interface : Native Win32 interface for Win NT & 2000
Gap handling : Appended to previous track
Used output format : User Defined Encoder
Selected bitrate : 1024 kBit/s
Quality : High
Add ID3 tag : No
Command line compressor : C:\Program Files (x86)\Exact Audio Copy\Flac\flac.exe
Additional command line options : -8 -V -T "ARTIST=%artist%" -T "TITLE=%title%" -T "ALBUM=%albumtitle%" -T "DATE=%year%" -T "TRACKNUMBER=%tracknr%" -T "GENRE=%genre%" -T "PERFORMER=%albuminterpret%" -T "COMPOSER=%composer%" %haslyrics%--tag-from-file=LYRICS="%lyricsfile%"%haslyrics% -T "ALBUMARTIST=%albumartist%" -T "DISCNUMBER=%cdnumber%" -T "TOTALDISCS=%totalcds%" -T "TOTALTRACKS=%numtracks%" -T "COMMENT=%comment%" %source% -o %dest%
TOC of the extracted CD
Track | Start | Length | Start sector | End sector
---------------------------------------------------------
1 | 0:00.00 | 28:44.00 | 0 | 129299
2 | 28:44.00 | 7:19.00 | 129300 | 162224
3 | 36:03.00 | 8:29.00 | 162225 | 200399
4 | 44:32.00 | 9:55.00 | 200400 | 245024
5 | 54:27.00 | 6:26.00 | 245025 | 273974
6 | 60:53.00 | 15:43.00 | 273975 | 344699
Track 1
Filename C:\Users\User\Music\WHAT_CD\_MY\Waclaw Zimpel To Tu Orchestra - Nature Moves (2014) [FLAC]\01 Cycles.wav
Pre-gap length 0:00:02.00
Peak level 98.8 %
Extraction speed 6.0 X
Test CRC 2F67AE94
Copy CRC 2F67AE94
Accurately ripped (confidence 2) [08179CEE] (AR v2)
Copy OK
Track 2
Filename C:\Users\User\Music\WHAT_CD\_MY\Waclaw Zimpel To Tu Orchestra - Nature Moves (2014) [FLAC]\02 River.wav
Peak level 98.8 %
Extraction speed 7.7 X
Test CRC ADB45C56
Copy CRC ADB45C56
Accurately ripped (confidence 2) [7BCF5B0E] (AR v2)
Copy OK
Track 3
Filename C:\Users\User\Music\WHAT_CD\_MY\Waclaw Zimpel To Tu Orchestra - Nature Moves (2014) [FLAC]\03 Dry Landscape.wav
Timing problem 0:00:13
Peak level 98.8 %
Extraction speed 8.3 X
Test CRC 323D94D0
Copy CRC 323D94D0
Accurately ripped (confidence 2) [9A64BD0F] (AR v2)
Copy finished
Track 4
Filename C:\Users\User\Music\WHAT_CD\_MY\Waclaw Zimpel To Tu Orchestra - Nature Moves (2014) [FLAC]\04 Under Surface.wav
Timing problem 0:06:57
Peak level 98.8 %
Extraction speed 8.9 X
Test CRC EE4C7C04
Copy CRC EE4C7C04
Accurately ripped (confidence 2) [89FE3A7B] (AR v2)
Copy finished
Track 5
Filename C:\Users\User\Music\WHAT_CD\_MY\Waclaw Zimpel To Tu Orchestra - Nature Moves (2014) [FLAC]\05 Winter Walk.wav
Peak level 98.8 %
Extraction speed 9.4 X
Test CRC 0E1FAD4D
Copy CRC 0E1FAD4D
Accurately ripped (confidence 2) [3E321EC2] (AR v2)
Copy OK
Track 6
Filename C:\Users\User\Music\WHAT_CD\_MY\Waclaw Zimpel To Tu Orchestra - Nature Moves (2014) [FLAC]\06 Where the Prairie Meets the Mountains.wav
Peak level 98.8 %
Extraction speed 10.1 X
Test CRC F1DF96C0
Copy CRC F1DF96C0
Accurately ripped (confidence 2) [8F2235B5] (AR v2)
Copy OK
All tracks accurately ripped
No errors occurred
End of status report
---- CUETools DB Plugin V2.1.4
[CTDB TOCID: ZSuOymw90gzbUdiLIhsimzqdaEo-] found
Submit result: ZSuOymw90gzbUdiLIhsimzqdaEo- has been confirmed
Track | CTDB Status
1 | (2/3) Accurately ripped
2 | (2/3) Accurately ripped
3 | (2/3) Accurately ripped
4 | (2/3) Accurately ripped
5 | (2/3) Accurately ripped
6 | (2/3) Accurately ripped
==== Log checksum D1B1F43152FA852697223FC7C26AB4469D676876E56E725068E6C7CC3A7E32B7 ====
 
.cue
REM GENRE Jazz
REM DATE 2014
REM DISCID 5A11F406
REM COMMENT "ExactAudioCopy v1.0b4"
PERFORMER "Waclaw Zimpel To Tu Orchestra"
TITLE "Nature Moves"
FILE "01 Cycles.wav" WAVE
TRACK 01 AUDIO
TITLE "Cycles"
PERFORMER "Waclaw Zimpel To Tu Orchestra"
ISRC PLH161400269
INDEX 01 00:00:00
FILE "02 River.wav" WAVE
TRACK 02 AUDIO
TITLE "River"
PERFORMER "Waclaw Zimpel To Tu Orchestra"
ISRC PLH161400270
INDEX 01 00:00:00
FILE "03 Dry Landscape.wav" WAVE
TRACK 03 AUDIO
TITLE "Dry Landscape"
PERFORMER "Waclaw Zimpel To Tu Orchestra"
ISRC PLH161400271
INDEX 01 00:00:00
FILE "04 Under Surface.wav" WAVE
TRACK 04 AUDIO
TITLE "Under Surface"
PERFORMER "Waclaw Zimpel To Tu Orchestra"
ISRC PLH161400272
INDEX 01 00:00:00
FILE "05 Winter Walk.wav" WAVE
TRACK 05 AUDIO
TITLE "Winter Walk"
PERFORMER "Waclaw Zimpel To Tu Orchestra"
ISRC PLH161400273
INDEX 01 00:00:00
FILE "06 Where the Prairie Meets the Mountains.wav" WAVE
TRACK 06 AUDIO
TITLE "Where the Prairie Meets the Mountains"
PERFORMER "Waclaw Zimpel To Tu Orchestra"
ISRC PLH161400274
INDEX 01 00:00:00

другие релизы
По всем вопросам пишите личное сообщение пользователю M0p94ok.
10:05
276
Нет комментариев. Ваш будет первым!