Вы используете незарегистрированную версию компонента "Вкладки"!

Поиск

(Free Jazz) [CD] Vandermark 5 (Ken Vandermark, Dave Rempis, Kent Kessler, Fred Lonberg-Holm,Tim Daisy) - Annular Gift - 2009, FLAC (tracks+.cue), lossless

(Free Jazz) [CD] Vandermark 5 (Ken Vandermark, Dave Rempis, Kent Kessler, Fred Lonberg-Holm,Tim Daisy) - Annular Gift - 2009, FLAC (tracks+.cue), lossless
Треклист:
Vandermark 5 / Annular Gift
Жанр: Free Jazz
Носитель: CD
Страна-производитель диска (релиза): Poland
Год издания: 2009
Издатель (лейбл): Not Two Records
Номер по каталогу: MW 825-2
Аудиокодек: FLAC (*.flac)
Тип рипа: tracks+.cue
Битрейт аудио: lossless
Продолжительность: 74:32
Источник (релизер): cd
Наличие сканов в содержимом раздачи: нет
Треклист:
1. Spiel (For Bertold Brecht And Kurt Weill) 20:27
2. Table, Skull And Bottles (For Bruno Johnson) 10:45
3. Early Color (For Saul Leiter) 11:42
4. Second Marker (For Ab Baars) 9:31
5. Cement (For Michael Haberz) 12:29
6. Cadmium Orange (For Francis Bacon) 8:44
 
Лог создания рипа
Exact Audio Copy V1.0 beta 3 from 29. August 2011
EAC extraction logfile from 9. February 2015, 15:53
Vandermark5 / Annular Gift
Used drive : ASUS DRW-24F1ST a Adapter: 0 ID: 0
Read mode : Secure
Utilize accurate stream : Yes
Defeat audio cache : Yes
Make use of C2 pointers : No
Read offset correction : 6
Overread into Lead-In and Lead-Out : No
Fill up missing offset samples with silence : Yes
Delete leading and trailing silent blocks : No
Null samples used in CRC calculations : Yes
Used interface : Native Win32 interface for Win NT & 2000
Gap handling : Appended to previous track
Used output format : User Defined Encoder
Selected bitrate : 320 kBit/s
Quality : High
Add ID3 tag : No
Command line compressor : D:\Programs\Exact Audio Copy\Flac\flac.exe
Additional command line options : -V -8 -T "Genre=%genre%" -T "Artist=%artist%" -T "Title=%title%" -T "Album=%albumtitle%" -T "Date=%year%" -T "Tracknumber=%tracknr%" -T "Comment=%comment%" %source%
TOC of the extracted CD
Track | Start | Length | Start sector | End sector
---------------------------------------------------------
1 | 0:00.00 | 20:32.35 | 0 | 92434
2 | 20:32.35 | 10:49.18 | 92435 | 141127
3 | 31:21.53 | 11:48.06 | 141128 | 194233
4 | 43:09.59 | 9:36.03 | 194234 | 237436
5 | 52:45.62 | 12:35.27 | 237437 | 294088
6 | 65:21.14 | 9:11.19 | 294089 | 335432
Track 1
Filename D:\EAC\01 Spiel.wav
Pre-gap length 0:00:02.00
Peak level 96.5 %
Extraction speed 6.1 X
Track quality 100.0 %
Test CRC 1793C4B8
Copy CRC 1793C4B8
Copy OK
Track 2
Filename D:\EAC\02 Table, Skull and Bottles.wav
Pre-gap length 0:00:03.26
Peak level 96.5 %
Extraction speed 7.4 X
Track quality 100.0 %
Test CRC 83431D5C
Copy CRC 83431D5C
Copy OK
Track 3
Filename D:\EAC\03 Early Color.wav
Pre-gap length 0:00:02.25
Peak level 96.5 %
Extraction speed 8.2 X
Track quality 100.0 %
Test CRC B9896AB8
Copy CRC B9896AB8
Copy OK
Track 4
Filename D:\EAC\04 Second Marker.wav
Pre-gap length 0:00:03.37
Peak level 96.5 %
Extraction speed 8.3 X
Track quality 99.9 %
Test CRC 61948AC3
Copy CRC 61948AC3
Copy OK
Track 5
Filename D:\EAC\05 Cement.wav
Pre-gap length 0:00:02.27
Peak level 96.5 %
Extraction speed 9.5 X
Track quality 100.0 %
Test CRC 43D77401
Copy CRC 43D77401
Copy OK
Track 6
Filename D:\EAC\06 Cadmium Orange.wav
Pre-gap length 0:00:03.62
Peak level 96.5 %
Extraction speed 9.9 X
Track quality 100.0 %
Test CRC 28EE0AC0
Copy CRC 28EE0AC0
Copy OK
No errors occurred
End of status report
==== Log checksum 6F7046C71FD6A224D86C2583D1EA12E17D4E84326271FE60BDBA789721958E23 ====
 
Содержание индексной карты (.CUE)
REM GENRE Jazz
REM DATE 2009
REM DISCID 53117806
REM COMMENT "ExactAudioCopy v1.0b3"
PERFORMER "Vandermark5"
TITLE "Annular Gift"
FILE "01 Spiel.wav" WAVE
TRACK 01 AUDIO
TITLE "Spiel"
PERFORMER "Vandermark5"
INDEX 01 00:00:00
TRACK 02 AUDIO
TITLE "Table, Skull and Bottles"
PERFORMER "Vandermark5"
INDEX 00 20:29:09
FILE "02 Table, Skull and Bottles.wav" WAVE
INDEX 01 00:00:00
TRACK 03 AUDIO
TITLE "Early Color"
PERFORMER "Vandermark5"
INDEX 00 10:46:68
FILE "03 Early Color.wav" WAVE
INDEX 01 00:00:00
TRACK 04 AUDIO
TITLE "Second Marker"
PERFORMER "Vandermark5"
INDEX 00 11:44:44
FILE "04 Second Marker.wav" WAVE
INDEX 01 00:00:00
TRACK 05 AUDIO
TITLE "Cement"
PERFORMER "Vandermark5"
INDEX 00 09:33:51
FILE "05 Cement.wav" WAVE
INDEX 01 00:00:00
TRACK 06 AUDIO
TITLE "Cadmium Orange"
PERFORMER "Vandermark5"
INDEX 00 12:31:40
FILE "06 Cadmium Orange.wav" WAVE
INDEX 01 00:00:00
Доп. информация: Recorded live in concert on March 14 and 15, 2009.
 
Об альбоме (сборнике)
Multi-instrumentalist, composer, and bandleader Ken Vandermark has led his flagship ensemble, the Vandermark 5, through a decade's worth of personnel changes. Despite the band's rotating roster, the ensemble's sound has remained remarkably consistent. A powerhouse unit capable of serene delicacy as well as unfettered intensity, the quintet has won a legion of fans the world over for its uncompromising vision of contemporary creative improvised music.
The current line-up has been active for three years now, documented on two remarkable studio records, A Discontinuous Line (Atavistic, 2006) and Beat Reader (Atavistic, 2008). Annular Gift is this incarnation's first live album, documenting in crystal clear sound their unflagging energy and dynamic sensibility over two nights (March 14 & 15, 2009) at the internationally renowned jazz club Alchemia, in Krakow, Poland.
The mammoth opener "Spiel (for Bertolt Brecht and Kurt Weill)" showcases the remarkable versatility of the newest member, cellist Fred Lonberg-Holm
. Negotiating the lengthy tune's numerous dramatic shifts, Longberg-Holm alternates between amplified and acoustic sonorities, veering from coruscating feedback to spectral pointillism. Typical of Vandermark's episodic writing, the piece eschews standardized forms, modulating through a series of stylistic changes that range from metallic funk to austere neo-classicism. The rhythm section gracefully complies with each transition as Vandermark's brawny tenor cries and tranquil clarinet musings contrast with Dave Rempis' serpentine alto salvos.
The thorny harmonic changes of the boppish "Table, Skull, and Bottles (for Bruno Johnson)" provide fodder for a string of pungent soliloquies, including an especially trenchant alto screed from Rempis. Taking advantage of a brief respite, Vandermark reveals his bluesy lyricism on the somber beginning of "Early Color (for Saul Leiter)," before the piece builds to a caterwauling finale. Kent Kessler
's quicksilver bass technique introduces the robust swinger "Second Marker (for Ab Baars)" and drummer Tim Daisy provides the labyrinthine "Cement (for Michael Haberz)" with a hypnotic groove, fueling Lonberg-Holm's kaleidoscopic ruminations and a climactic tenor saxophone duel between Vandermark and Rempis. The entire ensemble contributes to the punchy closer "Cadmium Orange (for Francis Bacon)," ending the set with a rousing assault of jagged angles and pugilistic downbeats.
For many reasons, working groups tend to be an unfortunate rarity in today's jazz scene. For 11 years Vandermark has done a phenomenal job of keeping this group together, and not only vital—but inspiring. Annular Gift proves their second decade looks to be as promising as their first.
 
Состав
Alto Saxophone, Tenor Saxophone – Dave Rempis
Bass – Kent Kessler
Cello, Electronics – Fred Lonberg-Holm
Drums – Tim Daisy
Tenor Saxophone, Clarinet [Bb Clarinet] – Ken Vandermark
По всем вопросам пишите личное сообщение пользователю M0p94ok.
09:22
207
Нет комментариев. Ваш будет первым!