Поиск

(Free Jazz) [CD] Triot with John Tchicai (Mikko Innanen, Nicolai Munch-Hansen, Stefan Pasborg) - Sudden Happiness - 2004, FLAC (image+.cue), lossless

(Free Jazz) [CD] Triot with John Tchicai (Mikko Innanen, Nicolai Munch-Hansen, Stefan Pasborg) - Sudden Happiness - 2004, FLAC (image+.cue), lossless
Треклист:
Triot with John Tchicai / Sudden Happiness
Жанр: Free Jazz
Носитель: CD
Страна-производитель диска: Finland
Год издания: 2004
Издатель (лейбл): TUM Records
Номер по каталогу: TUM CD 008
Аудиокодек: FLAC (*.flac)
Тип рипа: image+.cue
Битрейт аудио: lossless
Продолжительность: 61:00
Источник (релизер): CD
Наличие сканов в содержимом раздачи: нет
Треклист:
1. Good Company 5:45
2. Netop 6:16
3. Sci-Fi Hotel 9:34
4. Berber 10:12
5. Medley From "Samson And Delilah" 6:00
6. Second Night (I Was Happy ... The Street Was Dark) 5:16
7. From The Countryside5:02
8. Appear 4:49
9. Undercurrent 7:36
 
Лог создания рипа
Exact Audio Copy V1.0 beta 2 from 29. April 2011
EAC extraction logfile from 23. May 2014, 11:22
Triot with John Tchicai / Sudden Happiness
Used drive : Optiarc DVD RW AD-7170A Adapter: 0 ID: 0
Read mode : Secure
Utilize accurate stream : Yes
Defeat audio cache : Yes
Make use of C2 pointers : No
Read offset correction : 48
Overread into Lead-In and Lead-Out : No
Fill up missing offset samples with silence : Yes
Delete leading and trailing silent blocks : No
Null samples used in CRC calculations : Yes
Used interface : Native Win32 interface for Win NT & 2000
Used output format : User Defined Encoder
Selected bitrate : 320 kBit/s
Quality : High
Add ID3 tag : No
Command line compressor : C:\Program Files\Exact Audio Copy\Flac\flac.exe
Additional command line options : -V -8 -T "Date=%year%" -T "Genre=%genre%" %source%
TOC of the extracted CD
Track | Start | Length | Start sector | End sector
---------------------------------------------------------
1 | 0:00.00 | 5:48.54 | 0 | 26153
2 | 5:48.54 | 6:17.57 | 26154 | 54485
3 | 12:06.36 | 9:37.48 | 54486 | 97808
4 | 21:44.09 | 10:16.48 | 97809 | 144056
5 | 32:00.57 | 6:03.74 | 144057 | 171355
6 | 38:04.56 | 5:18.72 | 171356 | 195277
7 | 43:23.53 | 5:04.51 | 195278 | 218128
8 | 48:28.29 | 4:54.66 | 218129 | 240244
9 | 53:23.20 | 7:37.05 | 240245 | 274524
Range status and errors
Selected range
Filename K:\ЕАС\Triot with John Tchicai - Sudden Happiness.wav
Peak level 100.0 %
Extraction speed 2.0 X
Range quality 100.0 %
Test CRC C58F0C24
Copy CRC C58F0C24
Copy OK
No errors occurred
AccurateRip summary
Track 1 accurately ripped (confidence 2) [7DB6A654] (AR v2)
Track 2 accurately ripped (confidence 2) [29020D92] (AR v2)
Track 3 accurately ripped (confidence 2) [838EF404] (AR v2)
Track 4 accurately ripped (confidence 2) [C3683E1D] (AR v2)
Track 5 accurately ripped (confidence 2) [03C28133] (AR v2)
Track 6 accurately ripped (confidence 2) [B921B6F0] (AR v2)
Track 7 accurately ripped (confidence 2) [4947DE56] (AR v2)
Track 8 accurately ripped (confidence 2) [1C734EEA] (AR v2)
Track 9 accurately ripped (confidence 2) [E4F52F38] (AR v2)
All tracks accurately ripped
End of status report
==== Log checksum 347C26E581A6ACE8FEB00196C56BAE5B832535EED5B9A9846D5111D557E5DE83 ====
 
Содержание индексной карты (.CUE)
REM GENRE Jazz
REM DATE 2004
REM DISCID 680E4C09
REM COMMENT "ExactAudioCopy v1.0b2"
PERFORMER "Triot with John Tchicai"
TITLE "Sudden Happiness"
FILE "Triot with John Tchicai - Sudden Happiness.flac" WAVE
TRACK 01 AUDIO
TITLE "Good Company"
PERFORMER "Triot with John Tchicai"
ISRC FITU90400008
INDEX 01 00:00:00
TRACK 02 AUDIO
TITLE "Netop"
PERFORMER "Triot with John Tchicai"
ISRC FITU90400009
INDEX 00 05:45:49
INDEX 01 05:48:54
TRACK 03 AUDIO
TITLE "Sci-Fi Hotel"
PERFORMER "Triot with John Tchicai"
ISRC FITU90400010
INDEX 00 12:05:22
INDEX 01 12:06:36
TRACK 04 AUDIO
TITLE "Berber"
PERFORMER "Triot with John Tchicai"
ISRC FITU90400011
INDEX 00 21:40:60
INDEX 01 21:44:09
TRACK 05 AUDIO
TITLE "Medley from 'Samson and Delilah'"
PERFORMER "Triot with John Tchicai"
ISRC FITU90400012
INDEX 00 31:56:67
INDEX 01 32:00:57
TRACK 06 AUDIO
TITLE "Second Night (I Was Happy... The Street Was Dark)"
PERFORMER "Triot with John Tchicai"
ISRC FITU90400013
INDEX 00 38:01:33
INDEX 01 38:04:56
TRACK 07 AUDIO
TITLE "From the Country Side"
PERFORMER "Triot with John Tchicai"
ISRC FITU90400014
INDEX 00 43:20:74
INDEX 01 43:23:53
TRACK 08 AUDIO
TITLE "Appear"
PERFORMER "Triot with John Tchicai"
ISRC FITU90400015
INDEX 00 48:25:66
INDEX 01 48:28:29
TRACK 09 AUDIO
TITLE "Undercurrent"
PERFORMER "Triot with John Tchicai"
ISRC FITU90400016
INDEX 00 53:18:34
INDEX 01 53:23:20
Доп. информация: Recorded at Musikhuset in Århus, Denmark (May 19, 2002); 1000 Fryd in Aalborg, Denmark (May 21, 2002); and Jazzhouse in Copenhagen, Denmark (May 23, 2002).
 
Об альбоме (сборнике)
Sudden Happiness is a live recording by Triot, which includes the leading young Finnish saxophonist Mikko Innanen and two of Denmark´s most in-demand young jazz musicians, bassist Nikolai Munch-Hansen and drummer Stefan Pasborg, with the saxophone legend John Tchicai as their special guest. The album was recorded during their joint tour in Denmark and Sweden in 2002.
The music of Triot is an amalgamation of the introverted and melancholy Finnish character and the more extroverted Danish personality - with Afro-American musical tradition as a unifying element. Truly, a unique blend.
The legendary free-jazz saxophonist John Tchicai performs as Triot´s featured guest. His interplay with the group´s own saxophonist Mikko Innanen is pure magic throughout the recording. Tchicai, of course, is best known for his recordings starting from the early 1960s with John Coltrane, Archie Shepp, Don Cherry, Cecil Taylor and many others.
 
Состав
Mikko Innanen - alto, soprano and baritone saxophones
John Tchicai - tenor saxophone, bass clarinet (Undercurrent) and voice (Second Night)
Nicolai Munch-Hansen - bass
Stefan Pasborg - drums
По всем вопросам пишите личное сообщение пользователю M0p94ok.
02:10
145
Нет комментариев. Ваш будет первым!