Вы используете незарегистрированную версию компонента "Вкладки"!

Поиск

(free jazz) [cd] Torben Snekkestad, Barry Guy - Slip Slide and Collide (2014), FLAC (tracks+.cue), lossless

(free jazz) [cd] Torben Snekkestad, Barry Guy - Slip Slide and Collide (2014), FLAC (tracks+.cue), lossless
Треклист:
(free jazz) [cd] Torben Snekkestad, Barry Guy - Slip Slide and Collide (2014), FLAC (tracks+.cue), lossless


Torben Snekkestad, Barry Guy - Slip Slide and Collide (2014)

Жанр: free jazz
Год выпуска: 2014
Издатель (лейбл):Maya Recordings / MCD 1401
Формат: FLAC (tracks+.cue)
Битрейт аудио: lossless
Продолжительность 52`35
Источник: what.cd
Torben Snekkestad - saxophones, reed-trumpet
Barry Guy - double bass

tracks

1. Utsira 03:48
2. Skeam 05:11
3. Ombo 01:52
4. Gurumna 05:10
5. Silda 04:32
6. Achill 05:07
7. Anda 05:07
8. Cruit 06:41
9. Lopra 01:32
10. Gola 02:57
11. Fedje 03:26
12. Scattery 04:47
13. Senja 02:19


 
.log
Exact Audio Copy V1.0 beta 3 from 29. August 2011
EAC extraction logfile from 10. March 2016, 21:35
Torben Snekkestad, Barry Guy / Slip, Slide & Collide
Used drive : PLDS DVD-RW DS8A8SH Adapter: 0 ID: 0
Read mode : Secure
Utilize accurate stream : Yes
Defeat audio cache : Yes
Make use of C2 pointers : No
Read offset correction : 6
Overread into Lead-In and Lead-Out : No
Fill up missing offset samples with silence : Yes
Delete leading and trailing silent blocks : No
Null samples used in CRC calculations : Yes
Used interface : Native Win32 interface for Win NT & 2000
Gap handling : Appended to previous track
Used output format : User Defined Encoder
Selected bitrate : 1024 kBit/s
Quality : High
Add ID3 tag : Yes
Command line compressor : C:\Program Files (x86)\Exact Audio Copy\Flac\flac.exe
Additional command line options : -8 -e -V -T "ARTIST=%artist%" -T "TITLE=%title%" -T "ALBUM=%albumtitle%" -T "DATE=%year%" -T "TRACKNUMBER=%tracknr%" -T "GENRE=%genre%" -T "PERFORMER=%albuminterpret%" -T "COMPOSER=%composer%" %haslyrics%--tag-from-file=LYRICS="%lyricsfile%"%haslyrics% -T "ALBUMARTIST=%albumartist%" -T "DISCNUMBER=%cdnumber%" -T "TOTALDISCS=%totalcds%" -T "TOTALTRACKS=%numtracks%" -T "COMMENT=%comment%" %source% -o %dest%
TOC of the extracted CD
Track | Start | Length | Start sector | End sector
---------------------------------------------------------
1 | 0:01.22 | 3:48.31 | 97 | 17227
2 | 3:49.53 | 5:11.60 | 17228 | 40612
3 | 9:01.38 | 1:52.41 | 40613 | 49053
4 | 10:54.04 | 5:10.41 | 49054 | 72344
5 | 16:04.45 | 4:32.63 | 72345 | 92807
6 | 20:37.33 | 5:07.11 | 92808 | 115843
7 | 25:44.44 | 5:07.36 | 115844 | 138904
8 | 30:52.05 | 6:41.08 | 138905 | 168987
9 | 37:33.13 | 1:32.27 | 168988 | 175914
10 | 39:05.40 | 2:57.22 | 175915 | 189211
11 | 42:02.62 | 3:26.63 | 189212 | 204724
12 | 45:29.50 | 4:47.49 | 204725 | 226298
13 | 50:17.24 | 2:19.13 | 226299 | 236736
Track 1
Filename N:\Music\What.cd\Torben Snekkestad, Barry Guy - Slip Slide and Collide (2014) [FLAC]\01 - Utsira.wav
Pre-gap length 0:00:03.29
Peak level 60.4 %
Extraction speed 0.9 X
Track quality 99.9 %
Test CRC 761D39A1
Copy CRC 761D39A1
Track not present in AccurateRip database
Copy OK
Track 2
Filename N:\Music\What.cd\Torben Snekkestad, Barry Guy - Slip Slide and Collide (2014) [FLAC]\02 - Skeam.wav
Peak level 93.6 %
Extraction speed 1.3 X
Track quality 100.0 %
Test CRC 8F765991
Copy CRC 8F765991
Track not present in AccurateRip database
Copy OK
Track 3
Filename N:\Music\What.cd\Torben Snekkestad, Barry Guy - Slip Slide and Collide (2014) [FLAC]\03 - Ombo.wav
Peak level 86.0 %
Extraction speed 0.9 X
Track quality 99.9 %
Test CRC 0D93D773
Copy CRC 0D93D773
Track not present in AccurateRip database
Copy OK
Track 4
Filename N:\Music\What.cd\Torben Snekkestad, Barry Guy - Slip Slide and Collide (2014) [FLAC]\04 - Gurumna.wav
Peak level 97.8 %
Extraction speed 1.5 X
Track quality 100.0 %
Test CRC D0B986DA
Copy CRC D0B986DA
Track not present in AccurateRip database
Copy OK
Track 5
Filename N:\Music\What.cd\Torben Snekkestad, Barry Guy - Slip Slide and Collide (2014) [FLAC]\05 - Silda.wav
Peak level 91.5 %
Extraction speed 1.6 X
Track quality 100.0 %
Test CRC F0181558
Copy CRC F0181558
Track not present in AccurateRip database
Copy OK
Track 6
Filename N:\Music\What.cd\Torben Snekkestad, Barry Guy - Slip Slide and Collide (2014) [FLAC]\06 - Achill.wav
Peak level 82.9 %
Extraction speed 1.7 X
Track quality 100.0 %
Test CRC EBE8433C
Copy CRC EBE8433C
Track not present in AccurateRip database
Copy OK
Track 7
Filename N:\Music\What.cd\Torben Snekkestad, Barry Guy - Slip Slide and Collide (2014) [FLAC]\07 - Anda.wav
Peak level 97.8 %
Extraction speed 1.8 X
Track quality 100.0 %
Test CRC 5795A698
Copy CRC 5795A698
Track not present in AccurateRip database
Copy OK
Track 8
Filename N:\Music\What.cd\Torben Snekkestad, Barry Guy - Slip Slide and Collide (2014) [FLAC]\08 - Cruit.wav
Peak level 78.5 %
Extraction speed 2.0 X
Track quality 100.0 %
Test CRC 9FF56BC4
Copy CRC 9FF56BC4
Track not present in AccurateRip database
Copy OK
Track 9
Filename N:\Music\What.cd\Torben Snekkestad, Barry Guy - Slip Slide and Collide (2014) [FLAC]\09 - Lopra.wav
Peak level 87.2 %
Extraction speed 1.6 X
Track quality 100.0 %
Test CRC EF1CE00E
Copy CRC EF1CE00E
Track not present in AccurateRip database
Copy OK
Track 10
Filename N:\Music\What.cd\Torben Snekkestad, Barry Guy - Slip Slide and Collide (2014) [FLAC]\10 - Gola.wav
Peak level 97.8 %
Extraction speed 1.6 X
Track quality 99.9 %
Test CRC D0EEACC2
Copy CRC D0EEACC2
Track not present in AccurateRip database
Copy OK
Track 11
Filename N:\Music\What.cd\Torben Snekkestad, Barry Guy - Slip Slide and Collide (2014) [FLAC]\11 - Fedje.wav
Peak level 91.2 %
Extraction speed 1.7 X
Track quality 99.9 %
Test CRC D5C9F6CF
Copy CRC D5C9F6CF
Track not present in AccurateRip database
Copy OK
Track 12
Filename N:\Music\What.cd\Torben Snekkestad, Barry Guy - Slip Slide and Collide (2014) [FLAC]\12 - Scattery.wav
Peak level 95.2 %
Extraction speed 2.2 X
Track quality 100.0 %
Test CRC C7B0A4DC
Copy CRC C7B0A4DC
Track not present in AccurateRip database
Copy OK
Track 13
Filename N:\Music\What.cd\Torben Snekkestad, Barry Guy - Slip Slide and Collide (2014) [FLAC]\13 - Senja.wav
Peak level 75.0 %
Extraction speed 2.0 X
Track quality 100.0 %
Test CRC DFC3A760
Copy CRC DFC3A760
Track not present in AccurateRip database
Copy OK
None of the tracks are present in the AccurateRip database
No errors occurred
End of status report
==== Log checksum E8A817E30F6494FEE9759E4938BF84B8AFEE5C6DBBF6C7F201D54DD8CB4E0F75 ====
 
.cue
REM DISCID B10C530D
REM COMMENT "ExactAudioCopy v1.0b3"
CATALOG 7640120198688
PERFORMER "Torben Snekkestad, Barry Guy"
TITLE "Slip, Slide & Collide"
FILE "01 - Utsira.wav" WAVE
TRACK 01 AUDIO
TITLE "Utsira"
PERFORMER "Torben Snekkestad, Barry Guy"
ISRC GBAJR1400430
PREGAP 00:01:22
INDEX 01 00:00:00
FILE "02 - Skeam.wav" WAVE
TRACK 02 AUDIO
TITLE "Skeam"
PERFORMER "Torben Snekkestad, Barry Guy"
ISRC GBAJR1400431
INDEX 01 00:00:00
FILE "03 - Ombo.wav" WAVE
TRACK 03 AUDIO
TITLE "Ombo"
PERFORMER "Torben Snekkestad, Barry Guy"
ISRC GBAJR1400432
INDEX 01 00:00:00
FILE "04 - Gurumna.wav" WAVE
TRACK 04 AUDIO
TITLE "Gurumna"
PERFORMER "Torben Snekkestad, Barry Guy"
ISRC GBAJR1400433
INDEX 01 00:00:00
FILE "05 - Silda.wav" WAVE
TRACK 05 AUDIO
TITLE "Silda"
PERFORMER "Torben Snekkestad, Barry Guy"
ISRC GBAJR1400434
INDEX 01 00:00:00
FILE "06 - Achill.wav" WAVE
TRACK 06 AUDIO
TITLE "Achill"
PERFORMER "Torben Snekkestad, Barry Guy"
ISRC GBAJR1400435
INDEX 01 00:00:00
FILE "07 - Anda.wav" WAVE
TRACK 07 AUDIO
TITLE "Anda"
PERFORMER "Torben Snekkestad, Barry Guy"
ISRC GBAJR1400436
INDEX 01 00:00:00
FILE "08 - Cruit.wav" WAVE
TRACK 08 AUDIO
TITLE "Cruit"
PERFORMER "Torben Snekkestad, Barry Guy"
ISRC GBAJR1400437
INDEX 01 00:00:00
FILE "09 - Lopra.wav" WAVE
TRACK 09 AUDIO
TITLE "Lopra"
PERFORMER "Torben Snekkestad, Barry Guy"
ISRC GBAJR1400438
INDEX 01 00:00:00
FILE "10 - Gola.wav" WAVE
TRACK 10 AUDIO
TITLE "Gola"
PERFORMER "Torben Snekkestad, Barry Guy"
ISRC GBAJR1400439
INDEX 01 00:00:00
FILE "11 - Fedje.wav" WAVE
TRACK 11 AUDIO
TITLE "Fedje"
PERFORMER "Torben Snekkestad, Barry Guy"
ISRC GBAJR1400440
INDEX 01 00:00:00
FILE "12 - Scattery.wav" WAVE
TRACK 12 AUDIO
TITLE "Scattery"
PERFORMER "Torben Snekkestad, Barry Guy"
ISRC GBAJR1400441
INDEX 01 00:00:00
FILE "13 - Senja.wav" WAVE
TRACK 13 AUDIO
TITLE "Senja"
PERFORMER "Torben Snekkestad, Barry Guy"
ISRC GBAJR1400442
INDEX 01 00:00:00
https://www.discogs.com/Torben-Snekkestad-Barry-Guy-Slip-Slide-And-Collide/release/5667513
другие релизы
По всем вопросам пишите личное сообщение пользователю M0p94ok.
19:47
194
Нет комментариев. Ваш будет первым!