Вы используете незарегистрированную версию компонента "Вкладки"!

Поиск

(Free Jazz) [CD] Tony Malaby Tamarindo (William Parker, Nasheet Waits) - Somos Agua - 2014, APE (image+.cue), lossless

(Free Jazz) [CD] Tony Malaby Tamarindo (William Parker, Nasheet Waits) - Somos Agua - 2014, APE (image+.cue), lossless
Треклист:
Tony Malaby Tamarindo / Somos Agua
Жанр: free jazz
Носитель: CD
Страна-производитель диска: Португалия
Год издания: 2014
Издатель (лейбл): Clean Feed
Номер по каталогу: CF 304 CD
Страна исполнителя (группы): USA
Аудиокодек: APE (*.ape)
Тип рипа: image+.cue
Битрейт аудио: lossless
Продолжительность: 55:06
Источник (релизер): Я
Наличие сканов в содержимом раздачи: нет
Треклист:
1. Mule Skinner 5:46
2. Loretto 5:49
3. *matik-Matik* 6:00
4. Can't Find You... 13:12
5. Bitter Dream 8:34
6. Little Head 5:20
7. Somos Agua 10:23
 
Лог создания рипа
Exact Audio Copy V0.99 prebeta 5 from 4. May 2009
Отчёт EAC об извлечении, выполненном 25. сентября 2014, 22:37
Tony Malaby Tamarindo / Somos Agua
Дисковод: TSSTcorpCDRWDVD TSL462D Adapter: 2 ID: 0
Режим чтения : Достоверность
Использование точного потока : Да
Отключение кэша аудио : Да
Использование указателей C2 : Нет
Коррекция смещения при чтении : 6
Способность читать области Lead-in и Lead-out : Нет
Заполнение пропущенных сэмплов тишиной : Да
Удаление блоков с тишиной в начале и конце : Нет
При вычислениях CRC использовались нулевые сэмплы : Да
Интерфейс : Встроенный Win32-интерфейс для Win NT/2000
Выходной формат : Внутренние WAV-операции
Формат сэмплов : 44.100 Гц; 16 бит; стерео
TOC извлечённого CD
Трек | Старт | Длительность | Начальный сектор | Конечный сектор
---------------------------------------------------------------------
1 | 0:00.00 | 5:46.31 | 0 | 25980
2 | 5:46.31 | 5:49.59 | 25981 | 52214
3 | 11:36.15 | 6:00.22 | 52215 | 79236
4 | 17:36.37 | 13:12.14 | 79237 | 138650
5 | 30:48.51 | 8:34.05 | 138651 | 177205
6 | 39:22.56 | 5:20.22 | 177206 | 201227
7 | 44:43.03 | 10:23.54 | 201228 | 248006
Характеристики диапазона извлечения и сообщения об ошибках
Выбранный диапазон
Имя файла D:\Music\Tony Malaby-Somos Agua (2014)\Tony Malaby Tamarindo - Somos Agua.wav
Пиковый уровень 98.8 %
Качество диапазона 100.0 %
CRC теста D7D07CBC
CRC копии D7D07CBC
Копирование... OK
Ошибок не произошло
AccurateRip: сводка
Трек 1 точность не определена (достоверность 1) [8101CB36], AccurateRip вернул [F094484F]
Трек 2 точность не определена (достоверность 1) [CD9EF6F2], AccurateRip вернул [D8D02910]
Трек 3 точность не определена (достоверность 1) [82753AE2], AccurateRip вернул [A5E349A7]
Трек 4 точность не определена (достоверность 1) [D0FDAB20], AccurateRip вернул [859BD5D7]
Трек 5 точность не определена (достоверность 1) [3D8F94FF], AccurateRip вернул [68320913]
Трек 6 точность не определена (достоверность 1) [E0419272], AccurateRip вернул [AE550E37]
Трек 7 точность не определена (достоверность 1) [C499CC05], AccurateRip вернул [5E1136C1]
Ни один трек не прошёл проверки на точность
В вашей базе может быть иной вариант штамповки диска
Конец отчёта
 
Содержание индексной карты (.CUE)
REM GENRE Jazz
REM DATE 2014
REM DISCID 680CEA07
REM COMMENT "ExactAudioCopy v0.99pb5"
PERFORMER "Tony Malaby Tamarindo"
TITLE "Somos Agua"
FILE "Tony Malaby Tamarindo - Somos Agua.wav" WAVE
TRACK 01 AUDIO
TITLE "1. Mule Skinner "
PERFORMER "Tony Malaby Tamarindo"
INDEX 01 00:00:00
TRACK 02 AUDIO
TITLE "2. Loretto"
PERFORMER "Tony Malaby Tamarindo"
INDEX 01 05:46:31
TRACK 03 AUDIO
TITLE "3. *matik-Matik*"
PERFORMER "Tony Malaby Tamarindo"
INDEX 00 11:33:15
INDEX 01 11:36:15
TRACK 04 AUDIO
TITLE "4. Can't Find You... "
PERFORMER "Tony Malaby Tamarindo"
INDEX 00 17:34:38
INDEX 01 17:36:37
TRACK 05 AUDIO
TITLE "5. Bitter Dream"
PERFORMER "Tony Malaby Tamarindo"
INDEX 00 30:46:52
INDEX 01 30:48:51
TRACK 06 AUDIO
TITLE "6. Little Head"
PERFORMER "Tony Malaby Tamarindo"
INDEX 00 39:19:56
INDEX 01 39:22:56
TRACK 07 AUDIO
TITLE "7. Somos Agua"
PERFORMER "Tony Malaby Tamarindo"
INDEX 00 44:41:03
INDEX 01 44:43:03
 
Об альбоме (сборнике)
Отличный!
 
Состав
Nasheet Waits (d), Tony Malaby (sax), William Parker (b)
По всем вопросам пишите личное сообщение пользователю M0p94ok.
04:38
186
Нет комментариев. Ваш будет первым!