Вы используете незарегистрированную версию компонента "Вкладки"!

Поиск

(free jazz) [cd] The Resonance Ensemble - Double Arc 2015, FLAC (tracks+.cue), lossless

(free jazz) [cd] The Resonance Ensemble - Double Arc 2015, FLAC (tracks+.cue), lossless
Треклист:
(free jazz) [cd] The Resonance Ensemble - Double Arc 2015, FLAC (tracks+.cue), lossless


The Resonance Ensemble - Double Arc 2015

Жанр: free jazz
Год выпуска: 2015
Издатель (лейбл): Not Two Records / MW 936-2
Формат: FLAC (tracks+.cue)
Битрейт аудио: lossless
Продолжительность 103`20
Источник: what.cd
Mikołaj Trzaska – Alto Saxophone, Bass Clarinet
Dave Rempis – Alto Saxophone, Tenor Saxophone
Ken Vandermark – Baritone Saxophone, Clarinet [Bb]
Mark Tokar – Bass
Wacław Zimpel – Clarinet [Bb], Alto Clarinet
Michael Zerang – Drums
Tim Daisy – Drums
Christof Kurzmann – Electronics
Steve Swell – Trombone
Magnus Broo – Trumpet
Per-Åke Holmlander – Tuba

tracks

Arc One
Section A 5:00
Section B 4:44
Section C 4:56
Section D 2:59
Section E 7:57
Section F 2:06
Section G 9:09
Section H 6:05
Arc Two
Section A 2:46
Section B 4:52
Section C 2:31
Section D 4:46
Section E 2:10
Section F 3:19


 
.log
X Lossless Decoder version 20151128 (149.0)
XLD extraction logfile from 2015-11-30 23:26:10 +0300
The Resonance Ensemble / Double Arc
Used drive : HL-DT-ST DVDRW GX30N (revision RP09)
Media type : Pressed CD
Ripper mode : XLD Secure Ripper
Disable audio cache : OK for the drive with a cache less than 1375KiB
Make use of C2 pointers : NO
Read offset correction : 6
Max retry count : 100
Gap status : Analyzed, Appended (except HTOA)
TOC of the extracted CD
Track | Start | Length | Start sector | End sector
---------------------------------------------------------
1 | 00:00:00 | 04:59:71 | 0 | 22495
2 | 04:59:71 | 04:43:72 | 22496 | 43792
3 | 09:43:68 | 04:55:61 | 43793 | 65978
4 | 14:39:54 | 02:58:56 | 65979 | 79384
5 | 17:38:35 | 07:57:32 | 79385 | 115191
6 | 25:35:67 | 02:06:45 | 115192 | 124686
7 | 27:42:37 | 09:08:60 | 124687 | 165846
8 | 36:51:22 | 06:05:03 | 165847 | 193224
9 | 42:56:25 | 02:46:26 | 193225 | 205700
10 | 45:42:51 | 04:52:13 | 205701 | 227613
11 | 50:34:64 | 02:30:52 | 227614 | 238915
12 | 53:05:41 | 04:45:54 | 238916 | 260344
13 | 57:51:20 | 02:10:09 | 260345 | 270103
14 | 60:01:29 | 03:19:08 | 270104 | 285036
AccurateRip Summary
Disc not found in AccurateRip DB.
All Tracks
Album gain : -5.93 dB
Peak : 0.933258
Statistics
Read error : 0
Jitter error (maybe fixed) : 0
Retry sector count : 0
Damaged sector count : 0
Track 01
Filename : /Users/anch/Music/Grabbed/The Resonance Ensemble/F 2015 - Double Arc/01 - Arc One, Section A.flac
Pre-gap length : 00:02:00
Track gain : 9.09 dB
Peak : 0.340302
CRC32 hash (test run) : 93D8B309
CRC32 hash : 93D8B309
CRC32 hash (skip zero) : 4E90710D
AccurateRip v1 signature : 7FFEED40
AccurateRip v2 signature : 3271FA1D
->Track not present in AccurateRip database.
Statistics
Read error : 0
Jitter error (maybe fixed) : 0
Retry sector count : 0
Damaged sector count : 0
Track 02
Filename : /Users/anch/Music/Grabbed/The Resonance Ensemble/F 2015 - Double Arc/02 - Arc One, Section B.flac
Track gain : -6.49 dB
Peak : 0.933228
CRC32 hash (test run) : 22567DA0
CRC32 hash : 22567DA0
CRC32 hash (skip zero) : C7A14620
AccurateRip v1 signature : D0BA6144
AccurateRip v2 signature : 2C8D7613
->Track not present in AccurateRip database.
Statistics
Read error : 0
Jitter error (maybe fixed) : 0
Retry sector count : 0
Damaged sector count : 0
Track 03
Filename : /Users/anch/Music/Grabbed/The Resonance Ensemble/F 2015 - Double Arc/03 - Arc One, Section C.flac
Track gain : -6.25 dB
Peak : 0.932556
CRC32 hash (test run) : 4DA515EF
CRC32 hash : 4DA515EF
CRC32 hash (skip zero) : 47A49DEC
AccurateRip v1 signature : 97474C51
AccurateRip v2 signature : F6A9C55B
->Track not present in AccurateRip database.
Statistics
Read error : 0
Jitter error (maybe fixed) : 0
Retry sector count : 0
Damaged sector count : 0
Track 04
Filename : /Users/anch/Music/Grabbed/The Resonance Ensemble/F 2015 - Double Arc/04 - Arc One, Section D.flac
Track gain : -5.52 dB
Peak : 0.933258
CRC32 hash (test run) : E8218DE5
CRC32 hash : E8218DE5
CRC32 hash (skip zero) : D75CF021
AccurateRip v1 signature : C165C28A
AccurateRip v2 signature : 289B4539
->Track not present in AccurateRip database.
Statistics
Read error : 0
Jitter error (maybe fixed) : 0
Retry sector count : 0
Damaged sector count : 0
Track 05
Filename : /Users/anch/Music/Grabbed/The Resonance Ensemble/F 2015 - Double Arc/05 - Arc One, Section E.flac
Track gain : -6.01 dB
Peak : 0.933228
CRC32 hash (test run) : D8B0C56D
CRC32 hash : D8B0C56D
CRC32 hash (skip zero) : E601B7CC
AccurateRip v1 signature : DB1682D1
AccurateRip v2 signature : 094F02AB
->Track not present in AccurateRip database.
Statistics
Read error : 0
Jitter error (maybe fixed) : 0
Retry sector count : 0
Damaged sector count : 0
Track 06
Filename : /Users/anch/Music/Grabbed/The Resonance Ensemble/F 2015 - Double Arc/06 - Arc One, Section F.flac
Track gain : 17.23 dB
Peak : 0.087433
CRC32 hash (test run) : DF14188F
CRC32 hash : DF14188F
CRC32 hash (skip zero) : 044FF1DA
AccurateRip v1 signature : 25FAB129
AccurateRip v2 signature : E8F1C4A6
->Track not present in AccurateRip database.
Statistics
Read error : 0
Jitter error (maybe fixed) : 0
Retry sector count : 0
Damaged sector count : 0
Track 07
Filename : /Users/anch/Music/Grabbed/The Resonance Ensemble/F 2015 - Double Arc/07 - Arc One, Section G.flac
Track gain : -1.79 dB
Peak : 0.933228
CRC32 hash (test run) : 7D82D23D
CRC32 hash : 7D82D23D
CRC32 hash (skip zero) : B5D9D316
AccurateRip v1 signature : 669CBFA5
AccurateRip v2 signature : D7498E4C
->Track not present in AccurateRip database.
Statistics
Read error : 0
Jitter error (maybe fixed) : 0
Retry sector count : 0
Damaged sector count : 0
Track 08
Filename : /Users/anch/Music/Grabbed/The Resonance Ensemble/F 2015 - Double Arc/08 - Arc One, Section H.flac
Track gain : -2.61 dB
Peak : 0.933228
CRC32 hash (test run) : EB889D1B
CRC32 hash : EB889D1B
CRC32 hash (skip zero) : 43AB5E1D
AccurateRip v1 signature : 260362F0
AccurateRip v2 signature : 088D0945
->Track not present in AccurateRip database.
Statistics
Read error : 0
Jitter error (maybe fixed) : 0
Retry sector count : 0
Damaged sector count : 0
Track 09
Filename : /Users/anch/Music/Grabbed/The Resonance Ensemble/F 2015 - Double Arc/09 - Arc Two, Section A.flac
Track gain : -2.14 dB
Peak : 0.920563
CRC32 hash (test run) : 2FDEDA0E
CRC32 hash : 2FDEDA0E
CRC32 hash (skip zero) : CC19A237
AccurateRip v1 signature : FD44ADE2
AccurateRip v2 signature : EF122714
->Track not present in AccurateRip database.
Statistics
Read error : 0
Jitter error (maybe fixed) : 0
Retry sector count : 0
Damaged sector count : 0
Track 10
Filename : /Users/anch/Music/Grabbed/The Resonance Ensemble/F 2015 - Double Arc/10 - Arc Two, Section B.flac
Track gain : -2.81 dB
Peak : 0.899658
CRC32 hash (test run) : BB7F9A01
CRC32 hash : BB7F9A01
CRC32 hash (skip zero) : F6CF9070
AccurateRip v1 signature : EE44529D
AccurateRip v2 signature : D181C161
->Track not present in AccurateRip database.
Statistics
Read error : 0
Jitter error (maybe fixed) : 0
Retry sector count : 0
Damaged sector count : 0
Track 11
Filename : /Users/anch/Music/Grabbed/The Resonance Ensemble/F 2015 - Double Arc/11 - Arc Two, Section C.flac
Track gain : -7.82 dB
Peak : 0.933258
CRC32 hash (test run) : F07877C1
CRC32 hash : F07877C1
CRC32 hash (skip zero) : 970AF56C
AccurateRip v1 signature : 7616B223
AccurateRip v2 signature : 664164CF
->Track not present in AccurateRip database.
Statistics
Read error : 0
Jitter error (maybe fixed) : 0
Retry sector count : 0
Damaged sector count : 0
Track 12
Filename : /Users/anch/Music/Grabbed/The Resonance Ensemble/F 2015 - Double Arc/12 - Arc Two, Section D.flac
Track gain : -6.17 dB
Peak : 0.933258
CRC32 hash (test run) : 8EDECD0F
CRC32 hash : 8EDECD0F
CRC32 hash (skip zero) : 3ADF1C3B
AccurateRip v1 signature : 680D924D
AccurateRip v2 signature : 78A7B420
->Track not present in AccurateRip database.
Statistics
Read error : 0
Jitter error (maybe fixed) : 0
Retry sector count : 0
Damaged sector count : 0
Track 13
Filename : /Users/anch/Music/Grabbed/The Resonance Ensemble/F 2015 - Double Arc/13 - Arc Two, Section E.flac
Track gain : -5.68 dB
Peak : 0.907135
CRC32 hash (test run) : BD766F41
CRC32 hash : BD766F41
CRC32 hash (skip zero) : 134709CB
AccurateRip v1 signature : B227A852
AccurateRip v2 signature : B8A5A627
->Track not present in AccurateRip database.
Statistics
Read error : 0
Jitter error (maybe fixed) : 0
Retry sector count : 0
Damaged sector count : 0
Track 14
Filename : /Users/anch/Music/Grabbed/The Resonance Ensemble/F 2015 - Double Arc/14 - Arc Two, Section F.flac
Track gain : -7.77 dB
Peak : 0.933258
CRC32 hash (test run) : 0DE69110
CRC32 hash : 0DE69110
CRC32 hash (skip zero) : 2172865E
AccurateRip v1 signature : 67068C88
AccurateRip v2 signature : 643025E9
->Track not present in AccurateRip database.
Statistics
Read error : 0
Jitter error (maybe fixed) : 0
Retry sector count : 0
Damaged sector count : 0
No errors occurred
End of status report
-----BEGIN XLD SIGNATURE-----
LCwWa3kMP5GG6IyR22OGD9BNpBHEdOsqz5Sh0t1Zt1jqobQpZTQauys4.NUHISsUUJ9bRehhagzy3xAVWWnpu8.AVbvacgfsDP0erTy
-----END XLD SIGNATURE-----
 
.cue
TITLE "Double Arc"
PERFORMER "The Resonance Ensemble"
CATALOG 5901549185980
REM GENRE "Free Jazz"
REM DATE "2015"
REM DISCNUMBER 1
REM TOTALDISCS 1
REM DISCID BC0ED80E
REM REPLAYGAIN_ALBUM_GAIN -5.93 dB
REM REPLAYGAIN_ALBUM_PEAK 0.933258
FILE "01 - Arc One, Section A.flac" WAVE
TRACK 01 AUDIO
TITLE "Arc One, Section A"
PERFORMER "The Resonance Ensemble"
REM COMMENT "Resorded at the Manggha Culture Center, Krakow on 2015.11.24"
REM REPLAYGAIN_TRACK_GAIN 9.09 dB
REM REPLAYGAIN_TRACK_PEAK 0.340302
INDEX 01 00:00:00
FILE "02 - Arc One, Section B.flac" WAVE
TRACK 02 AUDIO
TITLE "Arc One, Section B"
PERFORMER "The Resonance Ensemble"
REM COMMENT "Resorded at the Manggha Culture Center, Krakow on 2015.11.24"
REM REPLAYGAIN_TRACK_GAIN -6.49 dB
REM REPLAYGAIN_TRACK_PEAK 0.933228
INDEX 01 00:00:00
FILE "03 - Arc One, Section C.flac" WAVE
TRACK 03 AUDIO
TITLE "Arc One, Section C"
PERFORMER "The Resonance Ensemble"
REM COMMENT "Resorded at the Manggha Culture Center, Krakow on 2015.11.24"
REM REPLAYGAIN_TRACK_GAIN -6.25 dB
REM REPLAYGAIN_TRACK_PEAK 0.932556
INDEX 01 00:00:00
FILE "04 - Arc One, Section D.flac" WAVE
TRACK 04 AUDIO
TITLE "Arc One, Section D"
PERFORMER "The Resonance Ensemble"
REM COMMENT "Resorded at the Manggha Culture Center, Krakow on 2015.11.24"
REM REPLAYGAIN_TRACK_GAIN -5.52 dB
REM REPLAYGAIN_TRACK_PEAK 0.933258
INDEX 01 00:00:00
FILE "05 - Arc One, Section E.flac" WAVE
TRACK 05 AUDIO
TITLE "Arc One, Section E"
PERFORMER "The Resonance Ensemble"
REM COMMENT "Resorded at the Manggha Culture Center, Krakow on 2015.11.24"
REM REPLAYGAIN_TRACK_GAIN -6.01 dB
REM REPLAYGAIN_TRACK_PEAK 0.933228
INDEX 01 00:00:00
FILE "06 - Arc One, Section F.flac" WAVE
TRACK 06 AUDIO
TITLE "Arc One, Section F"
PERFORMER "The Resonance Ensemble"
REM COMMENT "Resorded at the Manggha Culture Center, Krakow on 2015.11.24"
REM REPLAYGAIN_TRACK_GAIN 17.23 dB
REM REPLAYGAIN_TRACK_PEAK 0.087433
INDEX 01 00:00:00
FILE "07 - Arc One, Section G.flac" WAVE
TRACK 07 AUDIO
TITLE "Arc One, Section G"
PERFORMER "The Resonance Ensemble"
REM COMMENT "Resorded at the Manggha Culture Center, Krakow on 2015.11.24"
REM REPLAYGAIN_TRACK_GAIN -1.79 dB
REM REPLAYGAIN_TRACK_PEAK 0.933228
INDEX 01 00:00:00
FILE "08 - Arc One, Section H.flac" WAVE
TRACK 08 AUDIO
TITLE "Arc One, Section H"
PERFORMER "The Resonance Ensemble"
REM COMMENT "Resorded at the Manggha Culture Center, Krakow on 2015.11.24"
REM REPLAYGAIN_TRACK_GAIN -2.61 dB
REM REPLAYGAIN_TRACK_PEAK 0.933228
INDEX 01 00:00:00
FILE "09 - Arc Two, Section A.flac" WAVE
TRACK 09 AUDIO
TITLE "Arc Two, Section A"
PERFORMER "The Resonance Ensemble"
REM COMMENT "Resorded at the Manggha Culture Center, Krakow on 2015.11.24"
REM REPLAYGAIN_TRACK_GAIN -2.14 dB
REM REPLAYGAIN_TRACK_PEAK 0.920563
INDEX 01 00:00:00
FILE "10 - Arc Two, Section B.flac" WAVE
TRACK 10 AUDIO
TITLE "Arc Two, Section B"
PERFORMER "The Resonance Ensemble"
REM COMMENT "Resorded at the Manggha Culture Center, Krakow on 2015.11.24"
REM REPLAYGAIN_TRACK_GAIN -2.81 dB
REM REPLAYGAIN_TRACK_PEAK 0.899658
INDEX 01 00:00:00
FILE "11 - Arc Two, Section C.flac" WAVE
TRACK 11 AUDIO
TITLE "Arc Two, Section C"
PERFORMER "The Resonance Ensemble"
REM COMMENT "Resorded at the Manggha Culture Center, Krakow on 2015.11.24"
REM REPLAYGAIN_TRACK_GAIN -7.82 dB
REM REPLAYGAIN_TRACK_PEAK 0.933258
INDEX 01 00:00:00
FILE "12 - Arc Two, Section D.flac" WAVE
TRACK 12 AUDIO
TITLE "Arc Two, Section D"
PERFORMER "The Resonance Ensemble"
REM COMMENT "Resorded at the Manggha Culture Center, Krakow on 2015.11.24"
REM REPLAYGAIN_TRACK_GAIN -6.17 dB
REM REPLAYGAIN_TRACK_PEAK 0.933258
INDEX 01 00:00:00
FILE "13 - Arc Two, Section E.flac" WAVE
TRACK 13 AUDIO
TITLE "Arc Two, Section E"
PERFORMER "The Resonance Ensemble"
REM COMMENT "Resorded at the Manggha Culture Center, Krakow on 2015.11.24"
REM REPLAYGAIN_TRACK_GAIN -5.68 dB
REM REPLAYGAIN_TRACK_PEAK 0.907135
INDEX 01 00:00:00
FILE "14 - Arc Two, Section F.flac" WAVE
TRACK 14 AUDIO
TITLE "Arc Two, Section F"
PERFORMER "The Resonance Ensemble"
REM COMMENT "Resorded at the Manggha Culture Center, Krakow on 2015.11.24"
REM REPLAYGAIN_TRACK_GAIN -7.77 dB
REM REPLAYGAIN_TRACK_PEAK 0.933258
INDEX 01 00:00:00

другие релизы
По всем вопросам пишите личное сообщение пользователю M0p94ok.
18:48
204
Нет комментариев. Ваш будет первым!