Вы используете незарегистрированную версию компонента "Вкладки"!

Поиск

(free jazz) [cd] Tchicai, Muller, Munch-Hansen & Osgood - Coltrane in Spring 2007, FLAC (tracks+.cue), lossless

(free jazz) [cd] Tchicai, Muller, Munch-Hansen & Osgood - Coltrane in Spring 2007, FLAC (tracks+.cue), lossless
Треклист:
(free jazz) [cd] Tchicai, Muller, Munch-Hansen & Osgood - Coltrane in Spring 2007, FLAC (tracks+.cue), lossless


Tchicai, Müller, Munch-Hansen & Osgood - Coltrane in Spring 2007

Жанр:free jazz
Год выпуска: 2007
Издатель (лейбл):
Формат: FLAC (tracks+.cue)
Битрейт аудио: lossless
Продолжительность 47`48
Источник: what.cd

tracks

1 Coltrane In Spring 2:05
2 Dashiki Man 5:55
3 Ude I Det Fri 6:40
4 Angel Wing 6:20
5 Melodic Seven 6:11
6 On Top Of Your Head/Let's Hear What We Can See 3:35
7 Row Your Love Boat 4:39
8 Double Arc Jake 3:45
9 Modoc 8:35


 
.log
Exact Audio Copy V1.0 beta 3 from 29. August 2011
EAC extraction logfile from 25. February 2013, 17:20
Tchicai, Müller, Munch-Hansen & Osgood / Coltrane in Spring
Used drive : MATSHITADVD+-RW UJ8A7 Adapter: 0 ID: 1
Read mode : Secure
Utilize accurate stream : Yes
Defeat audio cache : Yes
Make use of C2 pointers : No
Read offset correction : 102
Overread into Lead-In and Lead-Out : No
Fill up missing offset samples with silence : Yes
Delete leading and trailing silent blocks : No
Null samples used in CRC calculations : Yes
Used interface : Native Win32 interface for Win NT & 2000
Gap handling : Not detected, thus appended to previous track
Used output format : User Defined Encoder
Selected bitrate : 32 kBit/s
Quality : High
Add ID3 tag : No
Command line compressor : C:\Program Files (x86)\Exact Audio Copy\Flac\flac.exe
Additional command line options : -V -8 -T artist=%artist% -T "title=%title%" -T "album=%albumtitle%" -T "date=%year%" -T "tracknumber=%tracknr%" -T "genre=%genre%" %source%
TOC of the extracted CD
Track | Start | Length | Start sector | End sector
---------------------------------------------------------
1 | 0:00.00 | 2:03.54 | 0 | 9278
2 | 2:03.54 | 5:59.66 | 9279 | 36269
3 | 8:03.45 | 6:38.41 | 36270 | 66160
4 | 14:42.11 | 6:20.30 | 66161 | 94690
5 | 21:02.41 | 6:12.15 | 94691 | 122605
6 | 27:14.56 | 3:36.52 | 122606 | 138857
7 | 30:51.33 | 4:36.18 | 138858 | 159575
8 | 35:27.51 | 3:48.46 | 159576 | 176721
9 | 39:16.22 | 8:31.65 | 176722 | 215111
Track 1
Filename C:\Users\Ibagon\Documents\Ripped Cds\(Tchicai, Müller, Munch-Hansen & Osgood)(Coltrane in Spring)(1) - (Coltrane in Spring).wav
Peak level 54.3 %
Extraction speed 2.1 X
Track quality 100.0 %
Test CRC 349CBB97
Copy CRC 349CBB97
Accurately ripped (confidence 1) [F88EBE68] (AR v1)
Copy OK
Track 2
Filename C:\Users\Ibagon\Documents\Ripped Cds\(Tchicai, Müller, Munch-Hansen & Osgood)(Coltrane in Spring)(2) - (Dashiki Man).wav
Peak level 100.0 %
Extraction speed 2.3 X
Track quality 99.9 %
Test CRC 7B8BA51F
Copy CRC 7B8BA51F
Accurately ripped (confidence 1) [AEBF338B] (AR v1)
Copy OK
Track 3
Filename C:\Users\Ibagon\Documents\Ripped Cds\(Tchicai, Müller, Munch-Hansen & Osgood)(Coltrane in Spring)(3) - (Ude i det fri).wav
Peak level 100.0 %
Extraction speed 3.3 X
Track quality 100.0 %
Test CRC D78EE9E5
Copy CRC D78EE9E5
Accurately ripped (confidence 1) [A44F535D] (AR v1)
Copy OK
Track 4
Filename C:\Users\Ibagon\Documents\Ripped Cds\(Tchicai, Müller, Munch-Hansen & Osgood)(Coltrane in Spring)(4) - (Angel Wing).wav
Peak level 100.0 %
Extraction speed 3.6 X
Track quality 100.0 %
Test CRC 4A7A592E
Copy CRC 4A7A592E
Accurately ripped (confidence 1) [E41362CC] (AR v1)
Copy OK
Track 5
Filename C:\Users\Ibagon\Documents\Ripped Cds\(Tchicai, Müller, Munch-Hansen & Osgood)(Coltrane in Spring)(5) - (Melodic Seven).wav
Peak level 100.0 %
Extraction speed 3.2 X
Track quality 99.9 %
Test CRC 6551A51E
Copy CRC 6551A51E
Accurately ripped (confidence 1) [695DB8AB] (AR v1)
Copy OK
Track 6
Filename C:\Users\Ibagon\Documents\Ripped Cds\(Tchicai, Müller, Munch-Hansen & Osgood)(Coltrane in Spring)(6) - (On Top Of Your Head--Let's See What We Can Hear).wav
Peak level 100.0 %
Extraction speed 3.8 X
Track quality 100.0 %
Test CRC B84B0014
Copy CRC B84B0014
Accurately ripped (confidence 1) [4757F08A] (AR v1)
Copy OK
Track 7
Filename C:\Users\Ibagon\Documents\Ripped Cds\(Tchicai, Müller, Munch-Hansen & Osgood)(Coltrane in Spring)(7) - (Row Your Love Boat).wav
Peak level 100.0 %
Extraction speed 3.1 X
Track quality 99.9 %
Test CRC CC9994D0
Copy CRC CC9994D0
Accurately ripped (confidence 1) [F9A28B89] (AR v1)
Copy OK
Track 8
Filename C:\Users\Ibagon\Documents\Ripped Cds\(Tchicai, Müller, Munch-Hansen & Osgood)(Coltrane in Spring)(8) - (Double Arc Jake).wav
Peak level 100.0 %
Extraction speed 4.2 X
Track quality 100.0 %
Test CRC 23C8B951
Copy CRC 23C8B951
Accurately ripped (confidence 1) [A39FCFE5] (AR v1)
Copy OK
Track 9
Filename C:\Users\Ibagon\Documents\Ripped Cds\(Tchicai, Müller, Munch-Hansen & Osgood)(Coltrane in Spring)(9) - (Modoc).wav
Peak level 100.0 %
Extraction speed 4.8 X
Track quality 100.0 %
Test CRC 07329197
Copy CRC 07329197
Accurately ripped (confidence 1) [8DEB9267] (AR v1)
Copy OK
All tracks accurately ripped
No errors occurred
End of status report
 
.cue
REM COMMENT "CUETools generated dummy CUE sheet"
PERFORMER "Tchicai, Muller, Munch-Hansen & Osgood"
TITLE "Coltrane in Spring"
REM DATE 2007
REM GENRE "Jazz"
FILE "01 - Coltrane in Spring.flac" WAVE
TRACK 01 AUDIO
PERFORMER "Tchicai, Muller, Munch-Hansen & Osgood"
TITLE "Coltrane in Spring"
INDEX 01 00:00:00
FILE "02 - Dashiki Man.flac" WAVE
TRACK 02 AUDIO
PERFORMER "Tchicai, Muller, Munch-Hansen & Osgood"
TITLE "Dashiki Man"
INDEX 01 00:00:00
FILE "03 - Ude i det fri.flac" WAVE
TRACK 03 AUDIO
PERFORMER "Tchicai, Muller, Munch-Hansen & Osgood"
TITLE "Ude i det fri"
INDEX 01 00:00:00
FILE "04 - Angel Wing.flac" WAVE
TRACK 04 AUDIO
PERFORMER "Tchicai, Muller, Munch-Hansen & Osgood"
TITLE "Angel Wing"
INDEX 01 00:00:00
FILE "05 - Melodic Seven.flac" WAVE
TRACK 05 AUDIO
PERFORMER "Tchicai, Muller, Munch-Hansen & Osgood"
TITLE "Melodic Seven"
INDEX 01 00:00:00
FILE "06 - On Top Of Your Head--Let's See What We Can Hear.flac" WAVE
TRACK 06 AUDIO
PERFORMER "Tchicai, Muller, Munch-Hansen & Osgood"
TITLE "On Top Of Your Head\\Let's See What We Can Hear"
INDEX 01 00:00:00
FILE "07 - Row Your Love Boat.flac" WAVE
TRACK 07 AUDIO
PERFORMER "Tchicai, Muller, Munch-Hansen & Osgood"
TITLE "Row Your Love Boat"
INDEX 01 00:00:00
FILE "08 - Double Arc Jake.flac" WAVE
TRACK 08 AUDIO
PERFORMER "Tchicai, Muller, Munch-Hansen & Osgood"
TITLE "Double Arc Jake"
INDEX 01 00:00:00
FILE "09 - Modoc.flac" WAVE
TRACK 09 AUDIO
PERFORMER "Tchicai, Muller, Munch-Hansen & Osgood"
TITLE "Modoc"
INDEX 01 00:00:00

http://www.discogs.com/Tchicai-M%C3%BCller-Munch-Hansen-Osgood-Coltrane-In-Spring/release/2418474
другие релизы
По всем вопросам пишите личное сообщение пользователю M0p94ok.
05:05
125
Нет комментариев. Ваш будет первым!