Вы используете незарегистрированную версию компонента "Вкладки"!

Поиск

(Free Jazz) [CD] Sunny Murray w/ Sabir Mateen - We Are Not At The Opera - 1998, FLAC (image+.cue), lossless

(Free Jazz) [CD] Sunny Murray w/ Sabir Mateen - We Are Not At The Opera - 1998, FLAC (image+.cue), lossless
Треклист:
Sunny Murray w/ Sabir Mateen - We Are Not At The Opera
Жанр: Free Jazz
Носитель: CD
Страна-производитель диска: US
Год издания: 1998
Издатель (лейбл): Eremite Records
Номер по каталогу: MTE014
Аудиокодек: FLAC (*.flac)
Тип рипа: image+.cue
Битрейт аудио: lossless
Продолжительность: 67:00
Источник (релизер): CD
Наличие сканов в содержимом раздачи: нет
Треклист:
1 Rejoicing New Dreams 18:47
2 Musically Correct 18:04
3 Clandestine Giant 18:06
4 Too Many Drummers, Not Enough Time 12:02
 
Лог создания рипа
Exact Audio Copy V1.0 beta 2 from 29. April 2011
EAC extraction logfile from 16. April 2014, 8:34
Sunny Murray & Sabir Mateen / We Are Not At The Opera
Used drive : Optiarc DVD RW AD-7170A Adapter: 0 ID: 0
Read mode : Secure
Utilize accurate stream : Yes
Defeat audio cache : Yes
Make use of C2 pointers : No
Read offset correction : 48
Overread into Lead-In and Lead-Out : No
Fill up missing offset samples with silence : Yes
Delete leading and trailing silent blocks : No
Null samples used in CRC calculations : Yes
Used interface : Native Win32 interface for Win NT & 2000
Used output format : User Defined Encoder
Selected bitrate : 320 kBit/s
Quality : High
Add ID3 tag : No
Command line compressor : C:\Program Files\Exact Audio Copy\Flac\flac.exe
Additional command line options : -V -8 -T "Date=%year%" -T "Genre=%genre%" %source%
TOC of the extracted CD
Track | Start | Length | Start sector | End sector
---------------------------------------------------------
1 | 0:00.00 | 18:47.24 | 0 | 84548
2 | 18:47.24 | 18:04.30 | 84549 | 165878
3 | 36:51.54 | 18:05.67 | 165879 | 247320
4 | 54:57.46 | 12:02.32 | 247321 | 301502
Range status and errors
Selected range
Filename K:\ЕАС\Sunny Murray & Sabir Mateen - We Are Not At The Opera.wav
Peak level 96.2 %
Extraction speed 2.2 X
Range quality 100.0 %
Test CRC 1987338E
Copy CRC 1987338E
Copy OK
No errors occurred
AccurateRip summary
Track 1 cannot be verified as accurate (confidence 3) [B748A27D], AccurateRip returned [767B87CA] (AR v2)
Track 2 accurately ripped (confidence 2) [AEEEB9C3] (AR v2)
Track 3 accurately ripped (confidence 2) [6B1B8684] (AR v2)
Track 4 accurately ripped (confidence 2) [C1EC92C3] (AR v2)
3 трек(и) скопированы точно
1 трек(и) не удалось проверить на точность
Some tracks could not be verified as accurate
End of status report
==== Log checksum EB02251FFD4EE96D26B8149583F1464CEE45E2766D3D6DE57F6A1E433C3FCF7A ====
 
Содержание индексной карты (.CUE)
REM GENRE Jazz
REM DATE 1998
REM DISCID 2E0FB404
REM COMMENT "ExactAudioCopy v1.0b2"
PERFORMER "Sunny Murray & Sabir Mateen"
TITLE "We Are Not At The Opera"
FILE "Sunny Murray & Sabir Mateen - We Are Not At The Opera.flac" WAVE
TRACK 01 AUDIO
TITLE "Rejoicing New Dreams"
PERFORMER "Sunny Murray & Sabir Mateen"
ISRC USTME9850001
FLAGS DCP
INDEX 01 00:00:00
TRACK 02 AUDIO
TITLE "Musically Correct"
PERFORMER "Sunny Murray & Sabir Mateen"
ISRC USTME9850002
FLAGS DCP
INDEX 01 18:47:24
TRACK 03 AUDIO
TITLE "Clandestine Giant"
PERFORMER "Sunny Murray & Sabir Mateen"
ISRC USTME9850003
FLAGS DCP
INDEX 01 36:51:54
TRACK 04 AUDIO
TITLE "Too Many Drummers, Not Enough Time"
PERFORMER "Sunny Murray & Sabir Mateen"
ISRC USTME9850004
FLAGS DCP
INDEX 01 54:57:46
Доп. информация: Recorded live to digital stereo at the Amherst Unitarian Meetinghouse, Amherst, MA., 27 June 1998.
 
Состав
Drums – Sunny Murray
Saxophone [Tenor, Alto], Flute – Sabir Mateen
По всем вопросам пишите личное сообщение пользователю M0p94ok.
01:15
141
Нет комментариев. Ваш будет первым!