Вы используете незарегистрированную версию компонента "Вкладки"!

Поиск

(free jazz) [CD] Sophia Domancich, William Parker, Hamid Drake - Washed Away (Live at the Sunside) 2008, FLAC (tracks+.cue), lossless

(free jazz) [CD] Sophia Domancich, William Parker, Hamid Drake - Washed Away (Live at the Sunside) 2008, FLAC (tracks+.cue), lossless
Треклист:


Sophia Domancich, William Parker, Hamid Drake
Washed Away (Live at the Sunside) 2008
Жанр: free jazz
Год выпуска: 2008
Издатель (лейбл): Marge / 43
Формат: FLAC (tracks+.cue)
Битрейт аудио: lossless
Продолжительность 1`02`11
Источник: what.cd, 6060842
Bass – William Parker
Drums – Hamid Drake
Piano – Sophia Domancich
Producer – Gérard Terronès
Recorded By, Mixed By, Edited By, Mastered By – Alain Gandolfi
Recorded live on July 1st and 2nd 2008 at the Sunside in Paris

tracks
1 Washed Away 15:35
2 The Seagulls Of Kristiansund 10:07
3 Lonely Woman 36:27


 
.log
X Lossless Decoder version 20130720 (144.0)
XLD extraction logfile from 2013-08-30 12:37:38 +0400
Sophia Domancich, William Parker, Hamid Drake / Washed Away (Live at the Sunside)
Used drive : HL-DT-ST DVDRW GX30N (revision RP09)
Media type : Pressed CD
Ripper mode : XLD Secure Ripper
Disable audio cache : OK for the drive with a cache less than 1375KiB
Make use of C2 pointers : NO
Read offset correction : 6
Max retry count : 100
Gap status : Analyzed, Appended (except HTOA)
TOC of the extracted CD
Track | Start | Length | Start sector | End sector
---------------------------------------------------------
1 | 00:00:00 | 15:35:68 | 0 | 70192
2 | 15:35:68 | 10:07:73 | 70193 | 115790
3 | 25:43:66 | 36:27:14 | 115791 | 279829
AccurateRip Summary
Disc not found in AccurateRip DB.
All Tracks
Album gain : -4.84 dB
Peak : 0.981018
Statistics
Read error : 0
Jitter error (maybe fixed) : 0
Retry sector count : 0
Damaged sector count : 0
Track 01
Filename : /Users/anch/Music/FLAC/Sophia Domancich, William Parker, Hamid Drake - 2008 - Washed Away (Live at the Sunside) [MP3 320]/01 - Washed Away.mp3
/Users/anch/Music/FLAC/Sophia Domancich, William Parker, Hamid Drake - 2008 - Washed Away (Live at the Sunside) [MP3 V0]/01 - Washed Away.mp3
/Users/anch/Music/FLAC/Sophia Domancich, William Parker, Hamid Drake - 2008 - Washed Away (Live at the Sunside) [FLAC]/01 - Washed Away.flac
Pre-gap length : 00:02:00
Track gain : -3.80 dB
Peak : 0.980927
CRC32 hash (test run) : 09056FB9
CRC32 hash : 09056FB9
CRC32 hash (skip zero) : 122E64AB
AccurateRip v1 signature : 75772241
AccurateRip v2 signature : F835A362
->Track not present in AccurateRip database.
Statistics
Read error : 0
Jitter error (maybe fixed) : 0
Retry sector count : 0
Damaged sector count : 0
Track 02
Filename : /Users/anch/Music/FLAC/Sophia Domancich, William Parker, Hamid Drake - 2008 - Washed Away (Live at the Sunside) [MP3 320]/02 - The Seagulls of Kristiansund.mp3
/Users/anch/Music/FLAC/Sophia Domancich, William Parker, Hamid Drake - 2008 - Washed Away (Live at the Sunside) [MP3 V0]/02 - The Seagulls of Kristiansund.mp3
/Users/anch/Music/FLAC/Sophia Domancich, William Parker, Hamid Drake - 2008 - Washed Away (Live at the Sunside) [FLAC]/02 - The Seagulls of Kristiansund.flac
Track gain : 2.95 dB
Peak : 0.980896
CRC32 hash (test run) : 4BA5038F
CRC32 hash : 4BA5038F
CRC32 hash (skip zero) : 48857760
AccurateRip v1 signature : A1D94A95
AccurateRip v2 signature : 1D1AC4AA
->Track not present in AccurateRip database.
Statistics
Read error : 0
Jitter error (maybe fixed) : 0
Retry sector count : 0
Damaged sector count : 0
Track 03
Filename : /Users/anch/Music/FLAC/Sophia Domancich, William Parker, Hamid Drake - 2008 - Washed Away (Live at the Sunside) [MP3 320]/03 - Lonely Woman.mp3
/Users/anch/Music/FLAC/Sophia Domancich, William Parker, Hamid Drake - 2008 - Washed Away (Live at the Sunside) [MP3 V0]/03 - Lonely Woman.mp3
/Users/anch/Music/FLAC/Sophia Domancich, William Parker, Hamid Drake - 2008 - Washed Away (Live at the Sunside) [FLAC]/03 - Lonely Woman.flac
Track gain : -5.62 dB
Peak : 0.981018
CRC32 hash (test run) : 681174CC
CRC32 hash : 681174CC
CRC32 hash (skip zero) : BCE79C13
AccurateRip v1 signature : 9096043D
AccurateRip v2 signature : FAF39A3A
->Track not present in AccurateRip database.
Statistics
Read error : 0
Jitter error (maybe fixed) : 0
Retry sector count : 0
Damaged sector count : 0
No errors occurred
End of status report
 
.cue
TITLE "Washed Away (Live at the Sunside)"
PERFORMER "Sophia Domancich, William Parker, Hamid Drake"
REM GENRE "Free Jazz"
REM DATE "2008"
REM DISCID 240E9303
REM REPLAYGAIN_ALBUM_GAIN -4.84 dB
REM REPLAYGAIN_ALBUM_PEAK 0.981018
FILE "01 - Washed Away.flac" WAVE
TRACK 01 AUDIO
TITLE "Washed Away"
PERFORMER "Sophia Domancich, William Parker, Hamid Drake"
SONGWRITER "Sophia Domancich, William Parker, Hamid Drake"
REM REPLAYGAIN_TRACK_GAIN -3.80 dB
REM REPLAYGAIN_TRACK_PEAK 0.980927
INDEX 01 00:00:00
FILE "02 - The Seagulls of Kristiansund.flac" WAVE
TRACK 02 AUDIO
TITLE "The Seagulls of Kristiansund"
PERFORMER "Sophia Domancich, William Parker, Hamid Drake"
SONGWRITER "Mal Waldron"
REM REPLAYGAIN_TRACK_GAIN 2.95 dB
REM REPLAYGAIN_TRACK_PEAK 0.980896
INDEX 01 00:00:00
FILE "03 - Lonely Woman.flac" WAVE
TRACK 03 AUDIO
TITLE "Lonely Woman"
PERFORMER "Sophia Domancich, William Parker, Hamid Drake"
SONGWRITER "Ornette Coleman"
REM REPLAYGAIN_TRACK_GAIN -5.62 dB
REM REPLAYGAIN_TRACK_PEAK 0.981018
INDEX 01 00:00:00
 
.accurip
[CUETools log; Date: 25/03/14 01:01:47; Version: 2.1.4]
[CTDB TOCID: c0HAaZJ80i_RwqNYfK5O2Lp0qsg-] found.
Track | CTDB Status
1 | (1/1) Accurately ripped
2 | (1/1) Accurately ripped
3 | (1/1) Accurately ripped
[AccurateRip ID: 00071b96-001885a8-240e9303] disk not present in database.
Track Peak [ CRC32 ] [W/O NULL]
-- 98.1 [EF753853] [66244552]
01 98.0 [09056FB9] [122E64AB]
02 98.0 [4BA5038F] [48857760]
03 98.1 [681174CC] [BCE79C13]

другие релизы
По всем вопросам пишите личное сообщение пользователю M0p94ok.
00:34
173
Нет комментариев. Ваш будет первым!