Поиск

(free jazz) [cd] Rudiger Carl, Sven-Ake Johansson - Djungelmusik med sang 2000 [FLAC], FLAC (tracks+.cue), lossless

(free jazz) [cd] Rudiger Carl, Sven-Ake Johansson - Djungelmusik med sang 2000 [FLAC], FLAC (tracks+.cue), lossless
(free jazz) [cd] Rudiger Carl, Sven-Ake Johansson - Djungelmusik med sang 2000 [FLAC], FLAC (tracks+.cue), lossless


Rudiger Carl, Sven-Ake Johansson - Djungelmusik med sang 2000

Жанр: free jazz
Год выпуска: 2000
Издатель (лейбл): Häpna / H.2
Формат: FLAC (tracks+.cue)
Битрейт аудио: lossless
Продолжительность
Источник: what.cd
Accordion, Clarinet – Rüdiger Carl
Accordion, Drums, Voice, Artwork [Drawings] – Sven-Åke Johansson
Recorded on May 26, 1997 at Andra Böcker Och Skivor, Stockholm.

tracks

1 Untitled 11:53
2 Untitled 12:01
3 Untitled 6:22
4 Untitled 5:36
5 Untitled 8:07


 
.log
X Lossless Decoder version 20140504 (147.0)
XLD extraction logfile from 2014-09-13 01:43:45 +0400
Rüdiger Carl, Sven-Åke Johansson / Djungelmusik med sång
Used drive : ASUS SDRW-08D2S-U (revision A611)
Media type : Pressed CD
Ripper mode : XLD Secure Ripper
Disable audio cache : OK for the drive with a cache less than 1375KiB
Make use of C2 pointers : NO
Read offset correction : 6
Max retry count : 100
Gap status : Analyzed, Appended (except HTOA)
TOC of the extracted CD
Track | Start | Length | Start sector | End sector
---------------------------------------------------------
1 | 00:00:00 | 11:53:02 | 0 | 53476
2 | 11:53:02 | 12:01:58 | 53477 | 107609
3 | 23:54:60 | 06:22:62 | 107610 | 136321
4 | 30:17:47 | 05:36:00 | 136322 | 161521
5 | 35:53:47 | 08:07:20 | 161522 | 198066
AccurateRip Summary
Disc not found in AccurateRip DB.
All Tracks
Album gain : 5.52 dB
Peak : 0.999969
Statistics
Read error : 0
Jitter error (maybe fixed) : 0
Retry sector count : 0
Damaged sector count : 0
Track 01
Filename : /Users/Shared/Grabbed/Rudiger Carl, Sven-Åke Johansson - 2000 - Djungelmusik med sang [FLAC]/01 - 01.flac
Pre-gap length : 00:02:00
Track gain : 5.48 dB
Peak : 0.817810
CRC32 hash (test run) : DEAD7D67
CRC32 hash : DEAD7D67
CRC32 hash (skip zero) : F67791E1
AccurateRip v1 signature : F3D7F825
AccurateRip v2 signature : 2EFC25AC
->Track not present in AccurateRip database.
Statistics
Read error : 0
Jitter error (maybe fixed) : 0
Retry sector count : 0
Damaged sector count : 0
Track 02
Filename : /Users/Shared/Grabbed/Rudiger Carl, Sven-Åke Johansson - 2000 - Djungelmusik med sang [FLAC]/02 - 02.flac
Pre-gap length : 00:04:32
Track gain : 5.07 dB
Peak : 0.999969
CRC32 hash (test run) : 6651DB09
CRC32 hash : 6651DB09
CRC32 hash (skip zero) : F44D8C69
AccurateRip v1 signature : 946462A6
AccurateRip v2 signature : 494243B9
->Track not present in AccurateRip database.
Statistics
Read error : 0
Jitter error (maybe fixed) : 0
Retry sector count : 0
Damaged sector count : 0
Track 03
Filename : /Users/Shared/Grabbed/Rudiger Carl, Sven-Åke Johansson - 2000 - Djungelmusik med sang [FLAC]/03 - 03.flac
Pre-gap length : 00:05:68
Track gain : 4.50 dB
Peak : 0.541199
CRC32 hash (test run) : 010EF314
CRC32 hash : 010EF314
CRC32 hash (skip zero) : 34315809
AccurateRip v1 signature : 7B48A324
AccurateRip v2 signature : 2D253F5A
->Track not present in AccurateRip database.
Statistics
Read error : 0
Jitter error (maybe fixed) : 0
Retry sector count : 0
Damaged sector count : 0
Track 04
Filename : /Users/Shared/Grabbed/Rudiger Carl, Sven-Åke Johansson - 2000 - Djungelmusik med sang [FLAC]/04 - 04.flac
Pre-gap length : 00:05:02
Track gain : 6.25 dB
Peak : 0.557709
CRC32 hash (test run) : 0E833293
CRC32 hash : 0E833293
CRC32 hash (skip zero) : 1E1543CF
AccurateRip v1 signature : CA2983F0
AccurateRip v2 signature : E3065698
->Track not present in AccurateRip database.
Statistics
Read error : 0
Jitter error (maybe fixed) : 0
Retry sector count : 0
Damaged sector count : 0
Track 05
Filename : /Users/Shared/Grabbed/Rudiger Carl, Sven-Åke Johansson - 2000 - Djungelmusik med sang [FLAC]/05 - 05.flac
Pre-gap length : 00:06:00
Track gain : 7.91 dB
Peak : 0.999939
CRC32 hash (test run) : AA4355A9
CRC32 hash : AA4355A9
CRC32 hash (skip zero) : E24DD895
AccurateRip v1 signature : 3AB4A10E
AccurateRip v2 signature : 8DD25DB9
->Track not present in AccurateRip database.
Statistics
Read error : 0
Jitter error (maybe fixed) : 0
Retry sector count : 0
Damaged sector count : 0
No errors occurred
End of status report
-----BEGIN XLD SIGNATURE-----
mDHhZm0dybaNNTYUvCttgSp6WSpO8vsGCD6vumiKOa8GvZ3P4MkekTo9Q_OP5dCX_0qadeM.yRGBr7hVsDUCg71d9gPcS1B73AG9yF4
-----END XLD SIGNATURE-----
 
.cue
TITLE "Djungelmusik med sång"
PERFORMER "Rüdiger Carl, Sven-Åke Johansson"
REM GENRE "Free Jazz"
REM DATE "2000"
REM DISCID 3D0A5005
REM REPLAYGAIN_ALBUM_GAIN 5.52 dB
REM REPLAYGAIN_ALBUM_PEAK 0.999969
FILE "01 - 01.flac" WAVE
TRACK 01 AUDIO
TITLE "01"
PERFORMER "Rüdiger Carl, Sven-Åke Johansson"
REM REPLAYGAIN_TRACK_GAIN 5.48 dB
REM REPLAYGAIN_TRACK_PEAK 0.817810
INDEX 01 00:00:00
TRACK 02 AUDIO
TITLE "02"
PERFORMER "Rüdiger Carl, Sven-Åke Johansson"
REM REPLAYGAIN_TRACK_GAIN 5.07 dB
REM REPLAYGAIN_TRACK_PEAK 0.999969
INDEX 00 11:48:45
FILE "02 - 02.flac" WAVE
INDEX 01 00:00:00
TRACK 03 AUDIO
TITLE "03"
PERFORMER "Rüdiger Carl, Sven-Åke Johansson"
REM REPLAYGAIN_TRACK_GAIN 4.50 dB
REM REPLAYGAIN_TRACK_PEAK 0.541199
INDEX 00 11:55:65
FILE "03 - 03.flac" WAVE
INDEX 01 00:00:00
TRACK 04 AUDIO
TITLE "04"
PERFORMER "Rüdiger Carl, Sven-Åke Johansson"
REM REPLAYGAIN_TRACK_GAIN 6.25 dB
REM REPLAYGAIN_TRACK_PEAK 0.557709
INDEX 00 06:17:60
FILE "04 - 04.flac" WAVE
INDEX 01 00:00:00
TRACK 05 AUDIO
TITLE "05"
PERFORMER "Rüdiger Carl, Sven-Åke Johansson"
REM REPLAYGAIN_TRACK_GAIN 7.91 dB
REM REPLAYGAIN_TRACK_PEAK 0.999939
INDEX 00 05:30:00
FILE "05 - 05.flac" WAVE
INDEX 01 00:00:00
https://www.discogs.com/R%C3%BCdiger-Carl-Sven-%C3%85ke-Johansson-Djungelmusik-Me...g/release/667982
другие релизы
20:29
382
Нет комментариев. Ваш будет первым!