Вы используете незарегистрированную версию компонента "Вкладки"!

Поиск

(Free Jazz) [CD] Positive Knowledge (Oluyemi Thomas, Ijeoma Thomas, Edward "Kidd" Jordan, Michael Wimberly, Harrison Bankhead) - Invisible Wisdom - 2007, FLAC (image+.cue), lossless

(Free Jazz) [CD] Positive Knowledge (Oluyemi Thomas, Ijeoma Thomas, Edward "Kidd" Jordan, Michael Wimberly, Harrison Bankhead) - Invisible Wisdom - 2007, FLAC (image+.cue), lossless
Треклист:
Positive Knowledge / Invisible Wisdom
Жанр: Free Jazz
Носитель: CD
Страна-производитель диска: US
Год издания: 2007
Издатель (лейбл): Charles Lester Music
Номер по каталогу: CLM-26-011
Аудиокодек: FLAC (*.flac)
Тип рипа: image+.cue
Битрейт аудио: lossless
Продолжительность: 54:58
Источник (релизер): CD
Наличие сканов в содержимом раздачи: нет
Треклист:
1 Invisible Wisdom, Up Listen 8:39
2 After Absence 5:10
3 Joy, Happiness & Elation 5:14
4 Vision Me 9:12
5 BA-DA-DE 4:10
6 Toning the Tone / SUMOTUWE (After Ted Jefferson, Betty Carter) 8:41
7 Robert Turner 5:21
8 Iya Ilu Spirit 2:13
9 Make Me Ready, Abha Beauty (horn tones into marching bass drum) 6:14
 
Лог создания рипа
Exact Audio Copy V1.0 beta 2 from 29. April 2011
EAC extraction logfile from 12. May 2014, 11:35
Positive Knowledge / Invisible Wisdom
Used drive : Optiarc DVD RW AD-7170A Adapter: 0 ID: 0
Read mode : Secure
Utilize accurate stream : Yes
Defeat audio cache : Yes
Make use of C2 pointers : No
Read offset correction : 48
Overread into Lead-In and Lead-Out : No
Fill up missing offset samples with silence : Yes
Delete leading and trailing silent blocks : No
Null samples used in CRC calculations : Yes
Used interface : Native Win32 interface for Win NT & 2000
Used output format : User Defined Encoder
Selected bitrate : 320 kBit/s
Quality : High
Add ID3 tag : No
Command line compressor : C:\Program Files\Exact Audio Copy\Flac\flac.exe
Additional command line options : -V -8 -T "Date=%year%" -T "Genre=%genre%" %source%
TOC of the extracted CD
Track | Start | Length | Start sector | End sector
---------------------------------------------------------
1 | 0:00.00 | 8:39.03 | 0 | 38927
2 | 8:39.03 | 5:10.36 | 38928 | 62213
3 | 13:49.39 | 5:14.72 | 62214 | 85835
4 | 19:04.36 | 9:12.02 | 85836 | 127237
5 | 28:16.38 | 4:10.58 | 127238 | 146045
6 | 32:27.21 | 8:41.37 | 146046 | 185157
7 | 41:08.58 | 5:21.70 | 185158 | 209302
8 | 46:30.53 | 2:13.38 | 209303 | 219315
9 | 48:44.16 | 6:14.28 | 219316 | 247393
Range status and errors
Selected range
Filename K:\ЕАС\Positive Knowledge - Invisible Wisdom.wav
Peak level 100.0 %
Extraction speed 2.0 X
Range quality 99.9 %
Test CRC F6819B03
Copy CRC F6819B03
Copy OK
No errors occurred
AccurateRip summary
Track 1 not present in database
Track 2 not present in database
Track 3 not present in database
Track 4 not present in database
Track 5 not present in database
Track 6 not present in database
Track 7 not present in database
Track 8 not present in database
Track 9 not present in database
None of the tracks are present in the AccurateRip database
End of status report
==== Log checksum 53651F69F2BDAB92D25FD4F37AAED9278F5DF9D814281AB8FF5D62ABAD1A0ACA ====
 
Содержание индексной карты (.CUE)
REM GENRE Jazz
REM DATE 2006
REM DISCID 850CE209
REM COMMENT "ExactAudioCopy v1.0b2"
PERFORMER "Positive Knowledge"
TITLE "Invisible Wisdom"
FILE "Positive Knowledge - Invisible Wisdom.flac" WAVE
TRACK 01 AUDIO
TITLE "Invisible Wisdom, Up Listen"
PERFORMER "Positive Knowledge"
ISRC 000000000000
INDEX 01 00:00:00
TRACK 02 AUDIO
TITLE "After Absence"
PERFORMER "Positive Knowledge"
ISRC 000000000000
INDEX 01 08:39:03
TRACK 03 AUDIO
TITLE "Joy, Happiness & Elation"
PERFORMER "Positive Knowledge"
ISRC 000000000000
INDEX 01 13:49:39
TRACK 04 AUDIO
TITLE "Vision Me"
PERFORMER "Positive Knowledge"
ISRC 000000000000
INDEX 01 19:04:36
TRACK 05 AUDIO
TITLE "BA-DA-DE"
PERFORMER "Positive Knowledge"
ISRC 000000000000
INDEX 01 28:16:38
TRACK 06 AUDIO
TITLE "Toning the Tone/SUMOTUWE"
PERFORMER "Positive Knowledge"
ISRC 000000000000
INDEX 01 32:27:21
TRACK 07 AUDIO
TITLE "Robert Turner"
PERFORMER "Positive Knowledge"
ISRC 000000000000
INDEX 00 41:06:58
INDEX 01 41:08:58
TRACK 08 AUDIO
TITLE "Iya Ilu Spirit"
PERFORMER "Positive Knowledge"
ISRC 000000000000
INDEX 00 46:28:53
INDEX 01 46:30:53
TRACK 09 AUDIO
TITLE "Make Me Ready, Abha Beauty"
PERFORMER "Positive Knowledge"
ISRC 000000000000
INDEX 00 48:42:16
INDEX 01 48:44:16
Доп. информация: Recorded live at 6/17/05 in New York City at Vision Festival X.
 
Об альбоме (сборнике)
The duo of Oluyemi and Ijeoma Thomas continues to be a potent one on this, the long-running Positive Knowledge collaboration's release Invisible Wisdom. Recorded live at 2005's Vision Festival, it's a widely varied and ultimately rewarding set where the only problem is a slightly distant recording.
That understood, the music is some of the most visceral and exciting the group has committed to tape. Audience presence is doubtless a factor in giving the group the extra edge and every member of the group seems to be feeling it. Kidd Jordan plays like a man half his age and the duo of bassist Harrison Bankhead and drummer Michael Wimberley provide all manner of support, crushing when necessary, sublime and sensitive when required. "Vision Me presents all facets of the group interplay in tiny but intense cycles, racing from pregnant space around Ijeoma's words to blindingly intense scree and squall within seconds.
The importance of Bankhead and Wimberley's contributions cannot be overstated; they are largely responsible for making the set what it is, the finest Positive Knowledge disc to date, driving even the resourceful Oluyemi to new heights of expression and creativity. This is a fine group, running on all cylinders, delivering a blistering set of classic "New Thing to an appreciative crowd.
 
Состав
Oluyemi Thomas: Bass Clarinet, Musette, C-Melody Saxophone, Talking Drum
Ijeoma Thomas: Spoken Word, Vocals, Percussion
Edward "Kidd" Jordan: Tenor Saxophone
Michael Wimberly: Drums, Djembe, Percussion
Harrison Bankhead: Bass
По всем вопросам пишите личное сообщение пользователю M0p94ok.
01:57
183
Нет комментариев. Ваш будет первым!