Вы используете незарегистрированную версию компонента "Вкладки"!

Поиск

(Free Jazz) [CD] Ornette Coleman - Something Else!!!! (1958) - 1988 {OJC 163-2}, FLAC (tracks+.cue), lossless

(Free Jazz) [CD] Ornette Coleman - Something Else!!!! (1958) - 1988 {OJC 163-2}, FLAC (tracks+.cue), lossless
Треклист:
Ornette Coleman - Something Else!!!! (1958)
Жанр: Free Jazz
Носитель: CD
Год издания: 1988
Издатель (лейбл): OJC/Contemporary
Номер по каталогу: 00025218616324/OJC 163-2
Аудиокодек: FLAC (*.flac)
Тип рипа: tracks+.cue
Битрейт аудио: lossless
Продолжительность: 43:00
Источник (релизер): What.cd (Namnatulco)
Наличие сканов в содержимом раздачи: да
Треклист:
01. Invisible (4:17)
02. The Blessing (4:49)
03. Jayne (7:23)
04. Chippie (5:41)
05. The Disguise (2:52)
06. Angel Voice (4:24)
07. Alpha (4:15)
08. When Will The Blues Leave? (5:03)
09. The Sphinx (4:16)
Personnel:
Ornette Coleman - as
Don Cherry - tp
Walter Norris - p
Don Payne - b
Billy Higgins - d
Rec.: Contemporary's Studio, Los Angeles, CA, February 10 & 22, March 24, 1958.
 
 
Лог создания рипа
Exact Audio Copy V0.99 prebeta 5 from 4. May 2009
EAC extraction logfile from 17. February 2011, 16:19
Ornette Coleman / Something Else!!!!
Used drive : Optiarc DVD RW AD-7170S Adapter: 1 ID: 0
Read mode : Secure
Utilize accurate stream : Yes
Defeat audio cache : Yes
Make use of C2 pointers : No
Read offset correction : 48
Overread into Lead-In and Lead-Out : No
Fill up missing offset samples with silence : Yes
Delete leading and trailing silent blocks : No
Null samples used in CRC calculations : Yes
Used interface : Installed external ASPI interface
Gap handling : Appended to previous track
Used output format : User Defined Encoder
Selected bitrate : 320 kBit/s
Quality : High
Add ID3 tag : No
Command line compressor : C:\Program Files\Exact Audio Copy\Flac\flac.exe
Additional command line options : -V -8 -T "artist=%a" -T "title=%t" -T "album=%g" -T "date=%y" -T "tracknumber=%n" -T "genre=%m" %s
TOC of the extracted CD
Track | Start | Length | Start sector | End sector
---------------------------------------------------------
1 | 0:00.00 | 4:17.10 | 0 | 19284
2 | 4:17.10 | 4:48.48 | 19285 | 40932
3 | 9:05.58 | 7:22.72 | 40933 | 74154
4 | 16:28.55 | 5:41.28 | 74155 | 99757
5 | 22:10.08 | 2:51.60 | 99758 | 112642
6 | 25:01.68 | 4:24.25 | 112643 | 132467
7 | 29:26.18 | 4:15.02 | 132468 | 151594
8 | 33:41.20 | 5:02.73 | 151595 | 174317
9 | 38:44.18 | 4:15.57 | 174318 | 193499
Track 1
Filename C:\EAC\Ornette Coleman - Something Else!!!!\01 - Invisible.wav
Pre-gap length 0:00:02.00
Peak level 73.1 %
Track quality 100.0 %
Test CRC 83EB52C2
Copy CRC 83EB52C2
Accurately ripped (confidence 2) [EC1F73A2]
Copy OK
Track 2
Filename C:\EAC\Ornette Coleman - Something Else!!!!\02 - The Blessing.wav
Pre-gap length 0:00:03.86
Peak level 73.9 %
Track quality 100.0 %
Test CRC 56C3FD41
Copy CRC 56C3FD41
Accurately ripped (confidence 2) [5A929273]
Copy OK
Track 3
Filename C:\EAC\Ornette Coleman - Something Else!!!!\03 - Jayne.wav
Pre-gap length 0:00:03.66
Peak level 72.5 %
Track quality 99.9 %
Test CRC DDA282CC
Copy CRC DDA282CC
Accurately ripped (confidence 2) [27FE5AC2]
Copy OK
Track 4
Filename C:\EAC\Ornette Coleman - Something Else!!!!\04 - Chippie.wav
Pre-gap length 0:00:03.69
Peak level 70.3 %
Track quality 99.9 %
Test CRC 284E9832
Copy CRC 284E9832
Accurately ripped (confidence 2) [67A9E788]
Copy OK
Track 5
Filename C:\EAC\Ornette Coleman - Something Else!!!!\05 - The Disguise.wav
Pre-gap length 0:00:02.86
Peak level 77.4 %
Track quality 100.0 %
Test CRC 1349BBE1
Copy CRC 1349BBE1
Accurately ripped (confidence 2) [A72E43C7]
Copy OK
Track 6
Filename C:\EAC\Ornette Coleman - Something Else!!!!\06 - Angel Voice.wav
Pre-gap length 0:00:03.46
Peak level 75.9 %
Track quality 99.9 %
Test CRC 9450BCBC
Copy CRC 9450BCBC
Accurately ripped (confidence 2) [CC7DBC8F]
Copy OK
Track 7
Filename C:\EAC\Ornette Coleman - Something Else!!!!\07 - Alpha.wav
Pre-gap length 0:00:04.00
Peak level 76.2 %
Track quality 99.9 %
Test CRC 3F1E36A5
Copy CRC 3F1E36A5
Accurately ripped (confidence 2) [FB483EBD]
Copy OK
Track 8
Filename C:\EAC\Ornette Coleman - Something Else!!!!\08 - When Will The Blues Leave .wav
Pre-gap length 0:00:03.46
Peak level 83.1 %
Track quality 100.0 %
Test CRC 804A7C1E
Copy CRC 804A7C1E
Accurately ripped (confidence 2) [68D1E601]
Copy OK
Track 9
Filename C:\EAC\Ornette Coleman - Something Else!!!!\09 - The Sphinx.wav
Pre-gap length 0:00:03.60
Peak level 82.1 %
Track quality 100.0 %
Test CRC CBDC1D2A
Copy CRC CBDC1D2A
Accurately ripped (confidence 2) [A68A4596]
Copy OK
All tracks accurately ripped
No errors occurred
End of status report
 
Содержание индексной карты (.CUE)
REM GENRE Jazz
REM DATE 1958
REM DISCID 700A1409
REM COMMENT "ExactAudioCopy v0.99pb5"
TITLE "Something Else!!!!"
PERFORMER "Ornette Coleman"
FILE "01 - Invisible.wav" WAVE
TRACK 01 AUDIO
TITLE "Invisible"
PERFORMER "Ornette Coleman"
INDEX 01 00:00:00
TRACK 02 AUDIO
TITLE "The Blessing"
PERFORMER "Ornette Coleman"
INDEX 00 04:13:20
FILE "02 - The Blessing.wav" WAVE
INDEX 01 00:00:00
TRACK 03 AUDIO
TITLE "Jayne"
PERFORMER "Ornette Coleman"
INDEX 00 04:44:73
FILE "03 - Jayne.wav" WAVE
INDEX 01 00:00:00
TRACK 04 AUDIO
TITLE "Chippie"
PERFORMER "Ornette Coleman"
INDEX 00 07:19:20
FILE "04 - Chippie.wav" WAVE
INDEX 01 00:00:00
TRACK 05 AUDIO
TITLE "The Disguise"
PERFORMER "Ornette Coleman"
INDEX 00 05:38:38
FILE "05 - The Disguise.wav" WAVE
INDEX 01 00:00:00
TRACK 06 AUDIO
TITLE "Angel Voice"
PERFORMER "Ornette Coleman"
INDEX 00 02:48:25
FILE "06 - Angel Voice.wav" WAVE
INDEX 01 00:00:00
TRACK 07 AUDIO
TITLE "Alpha"
PERFORMER "Ornette Coleman"
INDEX 00 04:20:25
FILE "07 - Alpha.wav" WAVE
INDEX 01 00:00:00
TRACK 08 AUDIO
TITLE "When Will The Blues Leave?"
PERFORMER "Ornette Coleman"
INDEX 00 04:11:42
FILE "08 - When Will The Blues Leave.wav" WAVE
INDEX 01 00:00:00
TRACK 09 AUDIO
TITLE "The Sphinx"
PERFORMER "Ornette Coleman"
INDEX 00 04:59:28
FILE "09 - The Sphinx.wav" WAVE
INDEX 01 00:00:00
 
CUETools log
[CUETools log; Date: 17.05.2014 16:56:30; Version: 2.0.9]
[CTDB TOCID: yfCfxoB4prQTxjXccMhY_6I6b6I-] found.
[ CTDBID ] Status
[cf067d07] (9/9) Accurately ripped
[AccurateRip ID: 000f3cff-006f07f8-700a1409] found.
Track [ CRC ] Status
01 [ec1f73a2] (02/11) Accurately ripped
02 [5a929273] (02/11) Accurately ripped
03 [27fe5ac2] (02/11) Accurately ripped
04 [67a9e788] (02/11) Accurately ripped
05 [a72e43c7] (02/11) Accurately ripped
06 [cc7dbc8f] (02/11) Accurately ripped
07 [fb483ebd] (02/11) Accurately ripped
08 [68d1e601] (02/11) Accurately ripped
09 [a68a4596] (02/11) Accurately ripped
Offsetted by 664:
01 [c112a0bf] (03/11) Accurately ripped
02 [75022f35] (03/11) Accurately ripped
03 [aad600c0] (03/11) Accurately ripped
04 [6c2603d7] (03/11) Accurately ripped
05 [2f4dbbc9] (03/11) Accurately ripped
06 [8e0f1dfa] (03/11) Accurately ripped
07 [7b28fb4a] (03/11) Accurately ripped
08 [901422fe] (03/11) Accurately ripped
09 [9fa7fd75] (03/11) Accurately ripped
Track Peak [ CRC32 ] [W/O NULL] [ LOG ]
-- 83,1 [DC3F2526] [E7806D26]
01 73,0 [83EB52C2] [4BC85536] CRC32
02 73,9 [56C3FD41] [7958D0B5] CRC32
03 72,5 [DDA282CC] [0399746F] CRC32
04 70,3 [284E9832] [87796DC9] CRC32
05 77,4 [1349BBE1] [BE5ED235] CRC32
06 75,9 [9450BCBC] [17FCCEFC] CRC32
07 76,2 [3F1E36A5] [51C4803E] CRC32
08 83,1 [804A7C1E] [1A533AFB] CRC32
09 82,1 [CBDC1D2A] [11D2D7BB] CRC32
По всем вопросам пишите личное сообщение пользователю M0p94ok.
02:06
152
Нет комментариев. Ваш будет первым!