Вы используете незарегистрированную версию компонента "Вкладки"!

Поиск

(Free Jazz) [CD] Ori Kaplan Percussion Ensemble (Andrew Bemkey, Geoff Mann, Susie Ibarra) - Gongol - 2001, FLAC (tracks+.cue), lossless

(Free Jazz) [CD] Ori Kaplan Percussion Ensemble (Andrew Bemkey, Geoff Mann, Susie Ibarra) - Gongol - 2001, FLAC (tracks+.cue), lossless
Треклист:
Ori Kaplan Percussion Ensemble / Gongol
Жанр: Free Jazz
Носитель: CD
Страна-производитель диска (релиза): US
Год издания: 2001
Издатель (лейбл): Knitting Factory Records
Номер по каталогу: KFW 284
Аудиокодек: FLAC (*.flac)
Тип рипа: tracks+.cue
Битрейт аудио: lossless
Продолжительность: 49:30
Источник (релизер): cd
Наличие сканов в содержимом раздачи: нет
Треклист:
1 Crisis Dream
2 Anticipate
3 Slowa Boat
4 Blow Daddy
5 Sky Drops
6 Dark Sun
7 Prayer For Ramon
8 Gongol
9 Shadow
10 Balasax
 
Лог создания рипа
Exact Audio Copy V1.0 beta 3 from 29. August 2011
EAC extraction logfile from 9. December 2014, 10:44
Ori Kaplan Percussion Ensemble / Gongol
Used drive : ASUS DRW-24F1ST a Adapter: 0 ID: 0
Read mode : Secure
Utilize accurate stream : Yes
Defeat audio cache : Yes
Make use of C2 pointers : No
Read offset correction : 6
Overread into Lead-In and Lead-Out : No
Fill up missing offset samples with silence : Yes
Delete leading and trailing silent blocks : No
Null samples used in CRC calculations : Yes
Used interface : Native Win32 interface for Win NT & 2000
Gap handling : Appended to previous track
Used output format : User Defined Encoder
Selected bitrate : 320 kBit/s
Quality : High
Add ID3 tag : No
Command line compressor : D:\Programs\Exact Audio Copy\Flac\flac.exe
Additional command line options : -V -8 -T "Genre=%genre%" -T "Artist=%artist%" -T "Title=%title%" -T "Album=%albumtitle%" -T "Date=%year%" -T "Tracknumber=%tracknr%" -T "Comment=%comment%" %source%
TOC of the extracted CD
Track | Start | Length | Start sector | End sector
---------------------------------------------------------
1 | 0:00.00 | 5:58.34 | 0 | 26883
2 | 5:58.34 | 3:48.57 | 26884 | 44040
3 | 9:47.16 | 5:27.43 | 44041 | 68608
4 | 15:14.59 | 6:49.11 | 68609 | 99294
5 | 22:03.70 | 7:03.16 | 99295 | 131035
6 | 29:07.11 | 5:29.23 | 131036 | 155733
7 | 34:36.34 | 5:21.69 | 155734 | 179877
8 | 39:58.28 | 1:58.72 | 179878 | 188799
9 | 41:57.25 | 5:56.72 | 188800 | 215571
10 | 47:54.22 | 1:36.45 | 215572 | 222816
Track 1
Filename D:\EAC\01 Crisis Dream.wav
Pre-gap length 0:00:02.00
Peak level 94.0 %
Extraction speed 4.6 X
Track quality 100.0 %
Test CRC 41014618
Copy CRC 41014618
Copy OK
Track 2
Filename D:\EAC\02 Anticipate.wav
Pre-gap length 0:00:03.00
Peak level 100.0 %
Extraction speed 4.3 X
Track quality 99.9 %
Test CRC 0C9F0703
Copy CRC 0C9F0703
Copy OK
Track 3
Filename D:\EAC\03 Slow Boat.wav
Pre-gap length 0:00:04.00
Peak level 79.6 %
Extraction speed 5.5 X
Track quality 100.0 %
Test CRC 75D617A5
Copy CRC 75D617A5
Copy OK
Track 4
Filename D:\EAC\04 Blow Daddy.wav
Pre-gap length 0:00:02.00
Peak level 90.2 %
Extraction speed 6.2 X
Track quality 100.0 %
Test CRC 5D6F67A1
Copy CRC 5D6F67A1
Copy OK
Track 5
Filename D:\EAC\05 Sky Drops.wav
Pre-gap length 0:00:04.00
Peak level 88.5 %
Extraction speed 6.8 X
Track quality 100.0 %
Test CRC EE86DAC5
Copy CRC EE86DAC5
Copy OK
Track 6
Filename D:\EAC\06 Dark Sun.wav
Pre-gap length 0:00:02.00
Peak level 90.1 %
Extraction speed 6.4 X
Track quality 99.9 %
Test CRC 36909DE7
Copy CRC 36909DE7
Copy OK
Track 7
Filename D:\EAC\07 Prayer for Ramon.wav
Pre-gap length 0:00:04.00
Peak level 72.3 %
Extraction speed 7.3 X
Track quality 100.0 %
Test CRC 3A875769
Copy CRC 3A875769
Copy OK
Track 8
Filename D:\EAC\08 Gongol.wav
Pre-gap length 0:00:03.00
Peak level 55.1 %
Extraction speed 6.4 X
Track quality 100.0 %
Test CRC 79009354
Copy CRC 79009354
Copy OK
Track 9
Filename D:\EAC\09 Shadow.wav
Pre-gap length 0:00:02.00
Peak level 100.0 %
Extraction speed 8.0 X
Track quality 100.0 %
Test CRC 4F637E86
Copy CRC 4F637E86
Copy OK
Track 10
Filename D:\EAC\10 Balisax.wav
Pre-gap length 0:00:03.00
Peak level 100.0 %
Extraction speed 4.9 X
Track quality 99.8 %
Test CRC 1F3787F2
Copy CRC 1F3787F2
Copy OK
No errors occurred
End of status report
==== Log checksum 0CDBD0F4A1FB467A0AE2A8BDD1F45A8F21825CDF4771BF76931FB0653E804E61 ====
 
Содержание индексной карты (.CUE)
REM GENRE Jazz
REM DATE 2001
REM DISCID 900B9A0A
REM COMMENT "ExactAudioCopy v1.0b3"
PERFORMER "Ori Kaplan Percussion Ensemble"
TITLE "Gongol"
FILE "01 Crisis Dream.wav" WAVE
TRACK 01 AUDIO
TITLE "Crisis Dream"
PERFORMER "Ori Kaplan Percussion Ensemble"
INDEX 01 00:00:00
TRACK 02 AUDIO
TITLE "Anticipate"
PERFORMER "Ori Kaplan Percussion Ensemble"
INDEX 00 05:55:34
FILE "02 Anticipate.wav" WAVE
INDEX 01 00:00:00
TRACK 03 AUDIO
TITLE "Slow Boat"
PERFORMER "Ori Kaplan Percussion Ensemble"
INDEX 00 03:44:57
FILE "03 Slow Boat.wav" WAVE
INDEX 01 00:00:00
TRACK 04 AUDIO
TITLE "Blow Daddy"
PERFORMER "Ori Kaplan Percussion Ensemble"
INDEX 00 05:25:43
FILE "04 Blow Daddy.wav" WAVE
INDEX 01 00:00:00
TRACK 05 AUDIO
TITLE "Sky Drops"
PERFORMER "Ori Kaplan Percussion Ensemble"
INDEX 00 06:45:11
FILE "05 Sky Drops.wav" WAVE
INDEX 01 00:00:00
TRACK 06 AUDIO
TITLE "Dark Sun"
PERFORMER "Ori Kaplan Percussion Ensemble"
INDEX 00 07:01:16
FILE "06 Dark Sun.wav" WAVE
INDEX 01 00:00:00
TRACK 07 AUDIO
TITLE "Prayer for Ramon"
PERFORMER "Ori Kaplan Percussion Ensemble"
INDEX 00 05:25:23
FILE "07 Prayer for Ramon.wav" WAVE
INDEX 01 00:00:00
TRACK 08 AUDIO
TITLE "Gongol"
PERFORMER "Ori Kaplan Percussion Ensemble"
INDEX 00 05:18:69
FILE "08 Gongol.wav" WAVE
INDEX 01 00:00:00
TRACK 09 AUDIO
TITLE "Shadow"
PERFORMER "Ori Kaplan Percussion Ensemble"
INDEX 00 01:56:72
FILE "09 Shadow.wav" WAVE
INDEX 01 00:00:00
TRACK 10 AUDIO
TITLE "Balisax"
PERFORMER "Ori Kaplan Percussion Ensemble"
INDEX 00 05:53:72
FILE "10 Balisax.wav" WAVE
INDEX 01 00:00:00
Доп. информация: recorded at Knitting Factory Oct 2000
 
Состав
Alto Saxophone – Ori Kaplan
Drums – Geoff Mann, Susie Ibarra
Piano – Andrew Bemkey
По всем вопросам пишите личное сообщение пользователю M0p94ok.
06:57
146
Нет комментариев. Ваш будет первым!