Вы используете незарегистрированную версию компонента "Вкладки"!

Поиск

(free jazz) [cd] Misha Mengelberg-Piet Noordijk Quartet - Journey, Live in Amsterdam 1966, FLAC (tracks+.cue), lossless

(free jazz) [cd] Misha Mengelberg-Piet Noordijk Quartet - Journey, Live in Amsterdam 1966, FLAC (tracks+.cue), lossless
Треклист:
(free jazz) [cd] Misha Mengelberg-Piet Noordijk Quartet - Journey, Live in Amsterdam 1966, FLAC (tracks+.cue), lossless


Misha Mengelberg-Piet Noordijk Quartet - Journey, Live in Amsterdam 1966

Жанр: free jazz
Год выпуска: 1966
Издатель (лейбл):2011, Dutch Jazz Archive / Music Center The Netherlands / MCN 1101
Формат: FLAC (tracks+.cue)
Битрейт аудио: lossless
Продолжительность 54`13
Источник: what.cd

tracks

1 Driekusman Total Loss 10:26
2 Peer's Counting Song 6:28
3 Journey 14:35
4 Sugar 'N Spice 9:29
5 The Leopard 13:15


 
.log
X Lossless Decoder version 20141129 (148.1)
XLD extraction logfile from 2015-03-25 17:15:56 +0100
Misha Mengelberg/Piet Noordijk Quartet / Journey - Misha Mengelberg/Piet Noordijk Quartet - Live in Amsterdam 1966 - Featuring Han Bennink and Rob Langereis - Special Guest Ted Curson - Dutch Jazz Archive Series - Jazz at the Concertgebouw [Music Center The Netherlands MCN 1101]
Used drive : TSSTcorp CDDVDW SE-S084D (revision TS01)
Media type : Pressed CD
Ripper mode : XLD Secure Ripper
Disable audio cache : OK for the drive with a cache less than 1375KiB
Make use of C2 pointers : NO
Read offset correction : 6
Max retry count : 100
Gap status : Analyzed, Appended (except HTOA)
TOC of the extracted CD
Track | Start | Length | Start sector | End sector
---------------------------------------------------------
1 | 00:00:00 | 10:26:07 | 0 | 46956
2 | 10:26:07 | 06:28:14 | 46957 | 76070
3 | 16:54:21 | 14:34:55 | 76071 | 141675
4 | 31:29:01 | 09:29:01 | 141676 | 184351
5 | 40:58:02 | 13:15:28 | 184352 | 244004
List of alternate offset correction values
# | Absolute | Relative | Confidence
------------------------------------------
1 | -658 | -664 | 2
AccurateRip Summary (DiscID: 000a9345-0031f77e-390cb505)
Track 01 : OK (v2, confidence 2/2, with different offset)
Track 02 : OK (v2, confidence 2/2, with different offset)
Track 03 : OK (v2, confidence 2/2, with different offset)
Track 04 : OK (v2, confidence 2/2, with different offset)
Track 05 : OK (v2, confidence 2/2, with different offset)
->All tracks accurately ripped.
All Tracks
Album gain : -0.97 dB
Peak : 0.958527
Statistics
Read error : 0
Jitter error (maybe fixed) : 0
Retry sector count : 0
Damaged sector count : 0
Track 01
Filename : /Volumes/4TB 2/CD/Journey - Misha Mengelberg:Piet Noordijk Quartet - Live in Amsterdam 1966 - Featuring Han Bennink and Rob Langereis - Special Guest Ted Curson - Dutch Jazz Archive Series - Jazz at the Concertgebouw [Music Center The Netherlands MCN 1101]/01 Driekusman Total Loss.flac
Pre-gap length : 00:02:00
Track gain : -1.98 dB
Peak : 0.958527
CRC32 hash (test run) : EAB449CC
CRC32 hash : EAB449CC
CRC32 hash (skip zero) : 8377DAB3
AccurateRip v1 signature : 2D7A5C7A
AccurateRip v2 signature : 2EBE1EF8 (C5B2AD09 w/correction)
->Accurately ripped with different offset (v2, confidence 2/2, offset -664)
Statistics
Read error : 0
Jitter error (maybe fixed) : 0
Retry sector count : 0
Damaged sector count : 0
Track 02
Filename : /Volumes/4TB 2/CD/Journey - Misha Mengelberg:Piet Noordijk Quartet - Live in Amsterdam 1966 - Featuring Han Bennink and Rob Langereis - Special Guest Ted Curson - Dutch Jazz Archive Series - Jazz at the Concertgebouw [Music Center The Netherlands MCN 1101]/02 Peer's Counting Song.flac
Track gain : 2.83 dB
Peak : 0.701965
CRC32 hash (test run) : 2ED7038A
CRC32 hash : 2ED7038A
CRC32 hash (skip zero) : 43C2A475
AccurateRip v1 signature : DDD760FD
AccurateRip v2 signature : E5FE772C (76CAA742 w/correction)
->Accurately ripped with different offset (v2, confidence 2/2, offset -664)
Statistics
Read error : 0
Jitter error (maybe fixed) : 0
Retry sector count : 0
Damaged sector count : 0
Track 03
Filename : /Volumes/4TB 2/CD/Journey - Misha Mengelberg:Piet Noordijk Quartet - Live in Amsterdam 1966 - Featuring Han Bennink and Rob Langereis - Special Guest Ted Curson - Dutch Jazz Archive Series - Jazz at the Concertgebouw [Music Center The Netherlands MCN 1101]/03 Journey.flac
Track gain : -0.88 dB
Peak : 0.783630
CRC32 hash (test run) : 5376B646
CRC32 hash : 5376B646
CRC32 hash (skip zero) : 4F641E59
AccurateRip v1 signature : F6354CDB
AccurateRip v2 signature : 06EFA7A6 (5A540D48 w/correction)
->Accurately ripped with different offset (v2, confidence 2/2, offset -664)
Statistics
Read error : 0
Jitter error (maybe fixed) : 0
Retry sector count : 0
Damaged sector count : 0
Track 04
Filename : /Volumes/4TB 2/CD/Journey - Misha Mengelberg:Piet Noordijk Quartet - Live in Amsterdam 1966 - Featuring Han Bennink and Rob Langereis - Special Guest Ted Curson - Dutch Jazz Archive Series - Jazz at the Concertgebouw [Music Center The Netherlands MCN 1101]/04 Sugar 'N Spice.flac
Track gain : -1.39 dB
Peak : 0.948151
CRC32 hash (test run) : 2B7C4F89
CRC32 hash : 2B7C4F89
CRC32 hash (skip zero) : 7959E3B7
AccurateRip v1 signature : 90102904
AccurateRip v2 signature : E3670532 (9DB8E149 w/correction)
->Accurately ripped with different offset (v2, confidence 2/2, offset -664)
Statistics
Read error : 0
Jitter error (maybe fixed) : 0
Retry sector count : 0
Damaged sector count : 0
Track 05
Filename : /Volumes/4TB 2/CD/Journey - Misha Mengelberg:Piet Noordijk Quartet - Live in Amsterdam 1966 - Featuring Han Bennink and Rob Langereis - Special Guest Ted Curson - Dutch Jazz Archive Series - Jazz at the Concertgebouw [Music Center The Netherlands MCN 1101]/05 The Leopard.flac
Track gain : -0.32 dB
Peak : 0.917206
CRC32 hash (test run) : 2AF546E2
CRC32 hash : 2AF546E2
CRC32 hash (skip zero) : E37B139F
AccurateRip v1 signature : 13544BD5
AccurateRip v2 signature : 654BB216 (A5C59E26 w/correction)
->Accurately ripped with different offset (v2, confidence 2/2, offset -664)
Statistics
Read error : 0
Jitter error (maybe fixed) : 0
Retry sector count : 0
Damaged sector count : 0
No errors occurred
End of status report
-----BEGIN XLD SIGNATURE-----
k1Z7Z_cZxQw6JQoNiYkvm03u64GLGDtxrv0Kh7bdaVMMnnAXZZqZqz_od4.4RBPUU79zoxloCjsAPS_c3TaWo5Zv3sv11hcHIUHkDfC
-----END XLD SIGNATURE-----
 
.cue
TITLE "Journey, Live in Amsterdam 1966"
PERFORMER "Misha Mengelberg/Piet Noordijk Quartet"
REM GENRE "Jazz"
REM DATE "1966"
REM DISCNUMBER 1
REM TOTALDISCS 1
REM DISCID 390CB505
REM REPLAYGAIN_ALBUM_GAIN -0.97 dB
REM REPLAYGAIN_ALBUM_PEAK 0.958527
FILE "01 Driekusman Total Loss.flac" WAVE
TRACK 01 AUDIO
TITLE "Driekusman Total Loss"
PERFORMER "Misha Mengelberg/Piet Noordijk Quartet"
SONGWRITER "Misha Mengelberg"
REM COMMENT "Alto Saxophone: Piet Noordijk/Piano: Misha Mengelberg/Bass: Rob Langereis/Drums: Han Bennink. Recording: Concertgebouw, Amsterdam, Thursday, 7 April 1966."
REM REPLAYGAIN_TRACK_GAIN -1.98 dB
REM REPLAYGAIN_TRACK_PEAK 0.958527
INDEX 01 00:00:00
FILE "02 Peer's Counting Song.flac" WAVE
TRACK 02 AUDIO
TITLE "Peer's Counting Song"
PERFORMER "Misha Mengelberg/Piet Noordijk Quartet"
SONGWRITER "Misha Mengelberg"
REM COMMENT "Alto Saxophone: Piet Noordijk/Piano: Misha Mengelberg/Bass: Rob Langereis/Drums: Han Bennink. Recording: Concertgebouw, Amsterdam, Thursday, 7 April 1966."
REM REPLAYGAIN_TRACK_GAIN 2.83 dB
REM REPLAYGAIN_TRACK_PEAK 0.701965
INDEX 01 00:00:00
FILE "03 Journey.flac" WAVE
TRACK 03 AUDIO
TITLE "Journey"
PERFORMER "Misha Mengelberg/Piet Noordijk Quartet"
SONGWRITER "Misha Mengelberg"
REM COMMENT "Alto Saxophone: Piet Noordijk/Piano: Misha Mengelberg/Bass: Rob Langereis/Drums: Han Bennink. Recording: Concertgebouw, Amsterdam, Thursday, 7 April 1966."
REM REPLAYGAIN_TRACK_GAIN -0.88 dB
REM REPLAYGAIN_TRACK_PEAK 0.783630
INDEX 01 00:00:00
FILE "04 Sugar 'N Spice.flac" WAVE
TRACK 04 AUDIO
TITLE "Sugar 'N Spice"
PERFORMER "Misha Mengelberg/Piet Noordijk Quartet/Ted Curson"
SONGWRITER "Ted Curson"
REM COMMENT "Alto Saxophone: Piet Noordijk/Trumpet: Ted Curson/Piano: Misha Mengelberg/Bass: Rob Langereis/Drums: Han Bennink. Recording: Concertgebouw, Amsterdam, Thursday, 7 April 1966."
REM REPLAYGAIN_TRACK_GAIN -1.39 dB
REM REPLAYGAIN_TRACK_PEAK 0.948151
INDEX 01 00:00:00
FILE "05 The Leopard.flac" WAVE
TRACK 05 AUDIO
TITLE "The Leopard"
PERFORMER "Misha Mengelberg/Piet Noordijk Quartet/Ted Curson"
SONGWRITER "Ted Curson"
REM COMMENT "Alto Saxophone: Piet Noordijk/Trumpet: Ted Curson/Piano: Misha Mengelberg/Bass: Rob Langereis/Drums: Han Bennink. Recording: Concertgebouw, Amsterdam, Thursday, 7 April 1966."
REM REPLAYGAIN_TRACK_GAIN -0.32 dB
REM REPLAYGAIN_TRACK_PEAK 0.917206
INDEX 01 00:00:00

http://www.discogs.com/Misha-Mengelberg-Piet-Noordijk-Quartet-Journey/release/3026437
другие релизы
По всем вопросам пишите личное сообщение пользователю M0p94ok.
13:35
208
Нет комментариев. Ваш будет первым!