Поиск

(free jazz) [cd] Michel Edelin Trio - Kuntu 2008, FLAC (tracks+.cue), lossless

(free jazz) [cd] Michel Edelin Trio - Kuntu 2008, FLAC (tracks+.cue), lossless
(free jazz) [cd] Michel Edelin Trio - Kuntu 2008, FLAC (tracks+.cue), lossless


Michel Edelin Trio - Kuntu 2008

Жанр: free jazz
Год выпуска: 2008
Издатель (лейбл): RogueArt / ROG-0019
Формат: FLAC (tracks+.cue)
Битрейт аудио: lossless
Продолжительность 55`27
Источник: what.cd
Michel Edelin : flute, alto flute, bass flute
Jean-Jacques Avenel : double bass
John Betsch : drums
Steve Lehman (special guest) : alto saxophone

tracks

1. Les Hirondelles (5.16)
2. 2-3-4-5 (7.25)
3. Ultravitre (7.30)
4. Goût bulgare (6.09)
5. Tout simplement (5.34)
6. Daolo (4.35)
7. Deca ut (4.28)
8. Bag's mood (4.01)
9. Lesson Choir (8.12)
10. Ruby my Dear (2.17)


 
.log
Exact Audio Copy V1.0 beta 4 from 7. December 2014
EAC extraction logfile from 11. February 2016, 13:44
Michel Edelin Trio / Kuntu
Used drive : MATSHITABD-CMB UJ160 Adapter: 1 ID: 0
Read mode : Secure
Utilize accurate stream : Yes
Defeat audio cache : Yes
Make use of C2 pointers : No
Read offset correction : 103
Overread into Lead-In and Lead-Out : No
Fill up missing offset samples with silence : Yes
Delete leading and trailing silent blocks : No
Null samples used in CRC calculations : Yes
Used interface : Native Win32 interface for Win NT & 2000
Gap handling : Appended to previous track
Used output format : User Defined Encoder
Selected bitrate : 1024 kBit/s
Quality : High
Add ID3 tag : No
Command line compressor : C:\Program Files (x86)\Exact Audio Copy\FLAC\FLAC.EXE
Additional command line options : -8 -V -T "ARTIST=%artist%" -T "TITLE=%title%" -T "ALBUM=%albumtitle%" -T "DATE=%year%" -T "TRACKNUMBER=%tracknr%" -T "GENRE=%genre%" -T "PERFORMER=%albuminterpret%" -T "COMPOSER=%composer%" %haslyrics%--tag-from-file=LYRICS="%lyricsfile%"%haslyrics% -T "ALBUMARTIST=%albumartist%" -T "DISCNUMBER=%cdnumber%" -T "TOTALDISCS=%totalcds%" -T "TOTALTRACKS=%numtracks%" -T "COMMENT=%comment%" %source% -o %dest%
TOC of the extracted CD
Track | Start | Length | Start sector | End sector
---------------------------------------------------------
1 | 0:00.00 | 5:15.51 | 0 | 23675
2 | 5:15.51 | 7:25.25 | 23676 | 57075
3 | 12:41.01 | 7:30.15 | 57076 | 90840
4 | 20:11.16 | 6:08.36 | 90841 | 118476
5 | 26:19.52 | 5:34.22 | 118477 | 143548
6 | 31:53.74 | 4:34.74 | 143549 | 164172
7 | 36:28.73 | 4:28.08 | 164173 | 184280
8 | 40:57.06 | 4:00.40 | 184281 | 202320
9 | 44:57.46 | 8:12.02 | 202321 | 239222
10 | 53:09.48 | 2:16.66 | 239223 | 249488
Track 1
Filename C:\Rips\Michel Edelin Trio - 2008 - Kuntu\01 Les Hirondelles.wav
Pre-gap length 0:00:02.00
Peak level 100.0 %
Extraction speed 2.4 X
Track quality 100.0 %
Test CRC A81155ED
Copy CRC A81155ED
Accurately ripped (confidence 1) [C41B67FF] (AR v2)
Copy OK
Track 2
Filename C:\Rips\Michel Edelin Trio - 2008 - Kuntu\02 2-3-4-5.wav
Pre-gap length 0:00:02.00
Peak level 100.0 %
Extraction speed 2.9 X
Track quality 100.0 %
Test CRC 626C386A
Copy CRC 626C386A
Accurately ripped (confidence 1) [6B440D96] (AR v2)
Copy OK
Track 3
Filename C:\Rips\Michel Edelin Trio - 2008 - Kuntu\03 Ultravitre.wav
Pre-gap length 0:00:02.00
Peak level 100.0 %
Extraction speed 3.0 X
Track quality 99.9 %
Test CRC 46F5D40C
Copy CRC 46F5D40C
Accurately ripped (confidence 1) [C153E1ED] (AR v2)
Copy OK
Track 4
Filename C:\Rips\Michel Edelin Trio - 2008 - Kuntu\04 Gout bulgare.wav
Pre-gap length 0:00:02.00
Peak level 100.0 %
Extraction speed 3.1 X
Track quality 99.9 %
Test CRC 70821949
Copy CRC 70821949
Accurately ripped (confidence 1) [74FEC9A1] (AR v2)
Copy OK
Track 5
Filename C:\Rips\Michel Edelin Trio - 2008 - Kuntu\05 Tout simplement.wav
Pre-gap length 0:00:02.00
Peak level 100.0 %
Extraction speed 3.2 X
Track quality 99.9 %
Test CRC 4159A6AE
Copy CRC 4159A6AE
Accurately ripped (confidence 1) [EBD19939] (AR v2)
Copy OK
Track 6
Filename C:\Rips\Michel Edelin Trio - 2008 - Kuntu\06 Daolo.wav
Pre-gap length 0:00:02.00
Peak level 100.0 %
Extraction speed 4.1 X
Track quality 100.0 %
Test CRC FE1CBC19
Copy CRC FE1CBC19
Accurately ripped (confidence 1) [0A7A4B02] (AR v2)
Copy OK
Track 7
Filename C:\Rips\Michel Edelin Trio - 2008 - Kuntu\07 Deca ut.wav
Pre-gap length 0:00:02.00
Peak level 100.0 %
Extraction speed 4.2 X
Track quality 100.0 %
Test CRC EC06A9D5
Copy CRC EC06A9D5
Accurately ripped (confidence 1) [4A423C80] (AR v2)
Copy OK
Track 8
Filename C:\Rips\Michel Edelin Trio - 2008 - Kuntu\08 Bag´s mood.wav
Pre-gap length 0:00:02.00
Peak level 99.8 %
Extraction speed 4.3 X
Track quality 100.0 %
Test CRC F558F8A2
Copy CRC F558F8A2
Accurately ripped (confidence 1) [0A91778A] (AR v2)
Copy OK
Track 9
Filename C:\Rips\Michel Edelin Trio - 2008 - Kuntu\09 Lesson Choir.wav
Pre-gap length 0:00:02.00
Peak level 100.0 %
Extraction speed 4.2 X
Track quality 99.9 %
Test CRC 30F491A8
Copy CRC 30F491A8
Accurately ripped (confidence 1) [98554B5C] (AR v2)
Copy OK
Track 10
Filename C:\Rips\Michel Edelin Trio - 2008 - Kuntu\10 Ruby my dear.wav
Pre-gap length 0:00:02.00
Peak level 68.1 %
Extraction speed 4.3 X
Track quality 100.0 %
Test CRC 19E7D7E8
Copy CRC 19E7D7E8
Accurately ripped (confidence 1) [4266D40E] (AR v2)
Copy OK
All tracks accurately ripped
No errors occurred
End of status report
---- CUETools DB Plugin V2.1.4
[CTDB TOCID: 71HcWvQLyxAjapRq.m53947QAwQ-] disk not present in database
Submit result: 71HcWvQLyxAjapRq.m53947QAwQ- has been uploaded
==== Log checksum D706FBFA01E8D3DEF6247088E6FF287D2B6852581BA6763F4628836FEEEE64E9 ====
 
.cue
REM GENRE Jazz
REM DATE 2008
REM DISCID 8B0CFE0A
REM COMMENT "ExactAudioCopy v1.0b4"
PERFORMER "Michel Edelin Trio"
TITLE "Kuntu"
FILE "01 Les Hirondelles.wav" WAVE
TRACK 01 AUDIO
TITLE "Les Hirondelles"
PERFORMER "Michel Edelin Trio"
INDEX 01 00:00:00
TRACK 02 AUDIO
TITLE "2-3-4-5"
PERFORMER "Michel Edelin Trio"
INDEX 00 05:13:51
FILE "02 2-3-4-5.wav" WAVE
INDEX 01 00:00:00
TRACK 03 AUDIO
TITLE "Ultravitre"
PERFORMER "Michel Edelin Trio"
INDEX 00 07:23:25
FILE "03 Ultravitre.wav" WAVE
INDEX 01 00:00:00
TRACK 04 AUDIO
TITLE "Gout bulgare"
PERFORMER "Michel Edelin Trio"
INDEX 00 07:28:15
FILE "04 Gout bulgare.wav" WAVE
INDEX 01 00:00:00
TRACK 05 AUDIO
TITLE "Tout simplement"
PERFORMER "Michel Edelin Trio"
INDEX 00 06:06:36
FILE "05 Tout simplement.wav" WAVE
INDEX 01 00:00:00
TRACK 06 AUDIO
TITLE "Daolo"
PERFORMER "Michel Edelin Trio"
INDEX 00 05:32:22
FILE "06 Daolo.wav" WAVE
INDEX 01 00:00:00
TRACK 07 AUDIO
TITLE "Deca ut"
PERFORMER "Michel Edelin Trio"
INDEX 00 04:32:74
FILE "07 Deca ut.wav" WAVE
INDEX 01 00:00:00
TRACK 08 AUDIO
TITLE "Bagґs mood"
PERFORMER "Michel Edelin Trio"
INDEX 00 04:26:08
FILE "08 Bagґs mood.wav" WAVE
INDEX 01 00:00:00
TRACK 09 AUDIO
TITLE "Lesson Choir"
PERFORMER "Michel Edelin Trio"
INDEX 00 03:58:40
FILE "09 Lesson Choir.wav" WAVE
INDEX 01 00:00:00
TRACK 10 AUDIO
TITLE "Ruby my dear"
PERFORMER "Michel Edelin Trio"
INDEX 00 08:10:02
FILE "10 Ruby my dear.wav" WAVE
INDEX 01 00:00:00
https://www.discogs.com/Michel-Edelin-Trio-Kuntu/release/1654212
другие релизы
22:52
380
Нет комментариев. Ваш будет первым!