Поиск

(free jazz) [cd] Matthew Shipp Quartet ( w/ Sabir Mateen, William Parker, Gerald Cleaver) - Our Lady of the Flowers 2013, FLAC (tracks+.cue), lossless

(free jazz) [cd] Matthew Shipp Quartet ( w/ Sabir Mateen, William Parker, Gerald Cleaver) - Our Lady of the Flowers 2013, FLAC (tracks+.cue), lossless
(free jazz) [cd] Matthew Shipp Quartet ( w/ Sabir Mateen, William Parker, Gerald Cleaver) - Our Lady of the Flowers 2013, FLAC (tracks+.cue), lossless


Matthew Shipp Quartet - Our Lady of the Flowers 2013

Жанр: free jazz
Год выпуска: 2013
Издатель (лейбл):RogueArt / ROG-0057
Формат: FLAC (tracks+.cue)
Битрейт аудио: lossless
Продолжительность 1`07`09
Источник: what.cd
Matthew Shipp: piano
Sabir Mateen: tenor saxophone, clarinet
William Parker: double bass
Gerald Cleaver: drums

tracks

Atomic Note (7:03)
1. New Tension (5:18)
2. A Different Plane (7:38)
3. From the Beyond (8:27)
4. Silence Blooms (4:24)
5. Irrational (6:46)
6. Our Lady of the Flowers (11:03)
7. Gasp (7:41)
8. Cosmic Joke (8:56)


 
.log
Exact Audio Copy V1.0 beta 4 from 7. December 2014
EAC extraction logfile from 4. November 2016, 13:43
Matthew Shipp Quartet / Our Lady of the Flowers
Used drive : MATSHITABD-CMB UJ160 Adapter: 1 ID: 0
Read mode : Secure
Utilize accurate stream : Yes
Defeat audio cache : Yes
Make use of C2 pointers : No
Read offset correction : 103
Overread into Lead-In and Lead-Out : No
Fill up missing offset samples with silence : Yes
Delete leading and trailing silent blocks : No
Null samples used in CRC calculations : Yes
Used interface : Native Win32 interface for Win NT & 2000
Gap handling : Appended to previous track
Used output format : User Defined Encoder
Selected bitrate : 1024 kBit/s
Quality : High
Add ID3 tag : No
Command line compressor : C:\Program Files (x86)\Exact Audio Copy\FLAC\FLAC.EXE
Additional command line options : -8 -V -T "ARTIST=%artist%" -T "TITLE=%title%" -T "ALBUM=%albumtitle%" -T "DATE=%year%" -T "TRACKNUMBER=%tracknr%" -T "GENRE=%genre%" -T "PERFORMER=%albuminterpret%" -T "COMPOSER=%composer%" %haslyrics%--tag-from-file=LYRICS="%lyricsfile%"%haslyrics% -T "ALBUMARTIST=%albumartist%" -T "DISCNUMBER=%cdnumber%" -T "TOTALDISCS=%totalcds%" -T "TOTALTRACKS=%numtracks%" -T "COMMENT=%comment%" %source% -o %dest%
TOC of the extracted CD
Track | Start | Length | Start sector | End sector
---------------------------------------------------------
1 | 0:00.00 | 7:02.02 | 0 | 31651
2 | 7:02.02 | 5:17.69 | 31652 | 55495
3 | 12:19.71 | 7:37.15 | 55496 | 89785
4 | 19:57.11 | 8:26.14 | 89786 | 127749
5 | 28:23.25 | 4:23.02 | 127750 | 147476
6 | 32:46.27 | 6:45.06 | 147477 | 177857
7 | 39:31.33 | 11:02.16 | 177858 | 227523
8 | 50:33.49 | 7:40.48 | 227524 | 262071
9 | 58:14.22 | 8:55.06 | 262072 | 302202
Track 1
Filename C:\Rips\Matthew Shipp Quartet - 2013 - Our Lady of the Flowers\01 Atomic Note.wav
Pre-gap length 0:00:02.00
Peak level 100.0 %
Extraction speed 2.5 X
Track quality 100.0 %
Test CRC 9B04F585
Copy CRC 9B04F585
Accurately ripped (confidence 1) [F6F7B575] (AR v2)
Copy OK
Track 2
Filename C:\Rips\Matthew Shipp Quartet - 2013 - Our Lady of the Flowers\02 New Tension.wav
Pre-gap length 0:00:04.00
Peak level 100.0 %
Extraction speed 2.8 X
Track quality 100.0 %
Test CRC 8E5D694C
Copy CRC 8E5D694C
Accurately ripped (confidence 1) [AF177EC2] (AR v2)
Copy OK
Track 3
Filename C:\Rips\Matthew Shipp Quartet - 2013 - Our Lady of the Flowers\03 A Different Plane.wav
Pre-gap length 0:00:04.00
Peak level 100.0 %
Extraction speed 3.2 X
Track quality 100.0 %
Test CRC 8828B1BB
Copy CRC 8828B1BB
Accurately ripped (confidence 1) [169FA954] (AR v2)
Copy OK
Track 4
Filename C:\Rips\Matthew Shipp Quartet - 2013 - Our Lady of the Flowers\04 From The Beyond.wav
Pre-gap length 0:00:04.00
Peak level 100.0 %
Extraction speed 3.6 X
Track quality 100.0 %
Test CRC 37EEBA6B
Copy CRC 37EEBA6B
Accurately ripped (confidence 1) [0D1576CE] (AR v2)
Copy OK
Track 5
Filename C:\Rips\Matthew Shipp Quartet - 2013 - Our Lady of the Flowers\05 Silence Blooms.wav
Pre-gap length 0:00:04.00
Peak level 85.9 %
Extraction speed 3.7 X
Track quality 100.0 %
Test CRC 83383B65
Copy CRC 83383B65
Accurately ripped (confidence 1) [E2E5DA5C] (AR v2)
Copy OK
Track 6
Filename C:\Rips\Matthew Shipp Quartet - 2013 - Our Lady of the Flowers\06 Irrational.wav
Pre-gap length 0:00:04.00
Peak level 100.0 %
Extraction speed 4.1 X
Track quality 100.0 %
Test CRC C6E3283C
Copy CRC C6E3283C
Accurately ripped (confidence 1) [82B9AA40] (AR v2)
Copy OK
Track 7
Filename C:\Rips\Matthew Shipp Quartet - 2013 - Our Lady of the Flowers\07 Our Lady of the Flowers.wav
Pre-gap length 0:00:04.00
Peak level 100.0 %
Extraction speed 4.5 X
Track quality 100.0 %
Test CRC E14BBD48
Copy CRC E14BBD48
Accurately ripped (confidence 1) [D5C34BC7] (AR v2)
Copy OK
Track 8
Filename C:\Rips\Matthew Shipp Quartet - 2013 - Our Lady of the Flowers\08 Gasp.wav
Pre-gap length 0:00:04.00
Peak level 100.0 %
Extraction speed 4.7 X
Track quality 100.0 %
Test CRC 68FC617E
Copy CRC 68FC617E
Accurately ripped (confidence 1) [447EF6BA] (AR v2)
Copy OK
Track 9
Filename C:\Rips\Matthew Shipp Quartet - 2013 - Our Lady of the Flowers\09 Cosmic Joke.wav
Pre-gap length 0:00:04.00
Peak level 100.0 %
Extraction speed 5.0 X
Track quality 100.0 %
Test CRC C9FE6720
Copy CRC C9FE6720
Accurately ripped (confidence 1) [D0A1A46C] (AR v2)
Copy OK
All tracks accurately ripped
No errors occurred
End of status report
---- CUETools DB Plugin V2.1.4
[CTDB TOCID: XWWBJraQWhYz7iwduMvCLkzc5VI-] found
Submit result: XWWBJraQWhYz7iwduMvCLkzc5VI- has been confirmed
Track | CTDB Status
1 | (1/1) Accurately ripped
2 | (1/1) Accurately ripped
3 | (1/1) Accurately ripped
4 | (1/1) Accurately ripped
5 | (1/1) Accurately ripped
6 | (1/1) Accurately ripped
7 | (1/1) Accurately ripped
8 | (1/1) Accurately ripped
9 | (1/1) Accurately ripped
==== Log checksum D1B776711ED7AB5279EFAAEEA7AE8CA3A79A8BEAD98CB33053438277035023BD ====
 
.cue
REM GENRE "Free Jazz"
REM DATE 2013
REM DISCID 810FBD09
REM COMMENT "ExactAudioCopy v1.0b4"
PERFORMER "Matthew Shipp Quartet"
TITLE "Our Lady of the Flowers"
FILE "01 Atomic Note.wav" WAVE
TRACK 01 AUDIO
TITLE "Atomic Note"
PERFORMER "Matthew Shipp Quartet"
ISRC FR9W11320814
FLAGS DCP
INDEX 01 00:00:00
TRACK 02 AUDIO
TITLE "New Tension"
PERFORMER "Matthew Shipp Quartet"
ISRC FR9W11320815
FLAGS DCP
INDEX 00 06:58:02
FILE "02 New Tension.wav" WAVE
INDEX 01 00:00:00
TRACK 03 AUDIO
TITLE "A Different Plane"
PERFORMER "Matthew Shipp Quartet"
ISRC FR9W11320816
FLAGS DCP
INDEX 00 05:13:69
FILE "03 A Different Plane.wav" WAVE
INDEX 01 00:00:00
TRACK 04 AUDIO
TITLE "From The Beyond"
PERFORMER "Matthew Shipp Quartet"
ISRC FR9W11320817
FLAGS DCP
INDEX 00 07:33:15
FILE "04 From The Beyond.wav" WAVE
INDEX 01 00:00:00
TRACK 05 AUDIO
TITLE "Silence Blooms"
PERFORMER "Matthew Shipp Quartet"
ISRC FR9W11320818
FLAGS DCP
INDEX 00 08:22:14
FILE "05 Silence Blooms.wav" WAVE
INDEX 01 00:00:00
TRACK 06 AUDIO
TITLE "Irrational"
PERFORMER "Matthew Shipp Quartet"
ISRC FR9W11320819
FLAGS DCP
INDEX 00 04:19:02
FILE "06 Irrational.wav" WAVE
INDEX 01 00:00:00
TRACK 07 AUDIO
TITLE "Our Lady of the Flowers"
PERFORMER "Matthew Shipp Quartet"
ISRC FR9W11320820
FLAGS DCP
INDEX 00 06:41:06
FILE "07 Our Lady of the Flowers.wav" WAVE
INDEX 01 00:00:00
TRACK 08 AUDIO
TITLE "Gasp"
PERFORMER "Matthew Shipp Quartet"
ISRC FR9W11320821
FLAGS DCP
INDEX 00 10:58:16
FILE "08 Gasp.wav" WAVE
INDEX 01 00:00:00
TRACK 09 AUDIO
TITLE "Cosmic Joke"
PERFORMER "Matthew Shipp Quartet"
ISRC FR9W11320822
FLAGS DCP
INDEX 00 07:36:48
FILE "09 Cosmic Joke.wav" WAVE
INDEX 01 00:00:00
https://www.discogs.com/Matthew-Shipp-Quartet-Matthew-Shipp-Sabir-Mateen-William-.../release/7180294
другие релизы
22:32
468
Нет комментариев. Ваш будет первым!