Поиск

(Free Jazz) [CD] KonstruKt (with Marshall Allen) - Vibrations Of The Day - 2011, FLAC (image+.cue), lossless

(Free Jazz) [CD] KonstruKt (with Marshall Allen) - Vibrations Of The Day - 2011, FLAC (image+.cue), lossless
KonstruKt / Vibrations Of The Day
Жанр: Free Jazz
Носитель: CD
Страна-производитель диска (релиза): Turkey
Год издания: 2011
Издатель (лейбл): Re:konstruKt
Номер по каталогу: re:048
Аудиокодек: FLAC (*.flac)
Тип рипа: image+.cue
Битрейт аудио: lossless
Продолжительность: 1:10:48
Источник (релизер): gssmg7
Наличие сканов в содержимом раздачи: да
Треклист:
1. Through The Asteroids (6:31)
2. Space Jungle (8:47)
3. Milky Way (6:63)
4. March Of The Aliens (11:01)
5. Supernova (7:01)
6. The Emperor (3:52)
7. Sunflower (8:58)
8. Neptune (10:13)
9. Spirits (7:54)
 
Лог создания рипа
Exact Audio Copy V1.0 beta 2 from 29. April 2011
EAC extraction logfile from 11. February 2016, 22:29
KonstruKt / Vibrations Of The Day
Used drive : Optiarc DVD RW AD-5280S Adapter: 1 ID: 1
Read mode : Secure
Utilize accurate stream : Yes
Defeat audio cache : Yes
Make use of C2 pointers : No
Read offset correction : 48
Overread into Lead-In and Lead-Out : No
Fill up missing offset samples with silence : Yes
Delete leading and trailing silent blocks : No
Null samples used in CRC calculations : Yes
Used interface : Installed external ASPI interface
Used output format : User Defined Encoder
Selected bitrate : 128 kBit/s
Quality : High
Add ID3 tag : No
Command line compressor : C:\Program Files\FLAC\flac.exe
Additional command line options : -V -8 -T "Genre=%genre%" -T "Artist=%artist%" -T "Title=%title%" -T "Album=%albumtitle%" -T "Date=%year%" -T "Tracknumber=%tracknr%" -T "Comment=%comment%" %source%
TOC of the extracted CD
Track | Start | Length | Start sector | End sector
---------------------------------------------------------
1 | 0:00.00 | 6:31.15 | 0 | 29339
2 | 6:31.15 | 8:47.07 | 29340 | 68871
3 | 15:18.22 | 6:32.20 | 68872 | 98291
4 | 21:50.42 | 11:01.08 | 98292 | 147874
5 | 32:51.50 | 7:00.36 | 147875 | 179410
6 | 39:52.11 | 3:51.57 | 179411 | 196792
7 | 43:43.68 | 8:57.69 | 196793 | 237136
8 | 52:41.62 | 10:12.55 | 237137 | 283091
9 | 62:54.42 | 7:54.26 | 283092 | 318667
Range status and errors
Selected range
Filename C:\KonstruKt (2011) - Vibrations Of The Day\KonstruKt (2011) - Vibrations Of The Day.wav
Peak level 100.0 %
Extraction speed 4.5 X
Range quality 100.0 %
Test CRC BF1F65B2
Copy CRC BF1F65B2
Copy OK
No errors occurred
AccurateRip summary
Track 1 not present in database
Track 2 not present in database
Track 3 not present in database
Track 4 not present in database
Track 5 not present in database
Track 6 not present in database
Track 7 not present in database
Track 8 not present in database
Track 9 not present in database
None of the tracks are present in the AccurateRip database
End of status report
==== Log checksum BADB555735230A139BEEE548F05FE13D3A0F488A020BF2343F60BBF1CF9CDE97 ====
 
Содержание индексной карты (.CUE)
REM GENRE Jazz
REM DATE 2011
REM DISCID 7C109809
REM COMMENT "ExactAudioCopy v1.0b2"
PERFORMER "KonstruKt"
TITLE "Vibrations Of The Day"
FILE "KonstruKt (2011) - Vibrations Of The Day.flac" WAVE
TRACK 01 AUDIO
TITLE "Through The Asteroids"
PERFORMER "KonstruKt"
INDEX 01 00:00:00
TRACK 02 AUDIO
TITLE "Space Jungle"
PERFORMER "KonstruKt"
INDEX 01 06:31:15
TRACK 03 AUDIO
TITLE "Milky Way"
PERFORMER "KonstruKt"
INDEX 01 15:18:22
TRACK 04 AUDIO
TITLE "March Of The Aliens"
PERFORMER "KonstruKt"
INDEX 01 21:50:42
TRACK 05 AUDIO
TITLE "Supernova"
PERFORMER "KonstruKt"
INDEX 01 32:51:50
TRACK 06 AUDIO
TITLE "The Emperor"
PERFORMER "KonstruKt"
INDEX 01 39:52:11
TRACK 07 AUDIO
TITLE "Sunflower"
PERFORMER "KonstruKt"
INDEX 01 43:43:68
TRACK 08 AUDIO
TITLE "Neptune"
PERFORMER "KonstruKt"
INDEX 01 52:41:62
TRACK 09 AUDIO
TITLE "Spirits"
PERFORMER "KonstruKt"
INDEX 01 62:54:42
 
Доп. информация
Recorded at atölye, çiftehavuzlar (Istanbul, 30.09.2010)
 
Состав
Marshall Allen - alto saxophone
Korhan Futacı - tenor & soprano saxophones, voice
Umut Çağlar - guitar, guitar synth
Barlas Tan Özemek - guitar
Hüseyin Ertunç - percussion, drums, vibraphones, flute, melodica
Özün Usta - percussion, drums, vibraphones
Korhan Argüden - drums
18:51
328
Нет комментариев. Ваш будет первым!