Поиск

(free jazz) [cd] Kaoru Abe (阿部薫) - Studio Session 1976.3.12 , FLAC (tracks+.cue), lossless

(free jazz) [cd] Kaoru Abe (阿部薫) - Studio Session 1976.3.12 , FLAC (tracks+.cue), lossless
Треклист:
(free jazz) [cd] Kaoru Abe (阿部薫) - Studio Session 1976.3.12 , FLAC (tracks+.cue), lossless


Kaoru Abe (阿部薫) - Studio Session 1976.3.12

Жанр: free jazz
Год выпуска: 1976
Издатель (лейбл):2015, Memory F Planning / POCD-9344
Формат: FLAC (tracks+.cue)
Битрейт аудио: lossless
Продолжительность
Источник: what.cd

tracks

1. Piano
2. Harmonica
3. Harmonica
4. Alto Saxophone
5. Alto Saxophone
6. Alto Saxophone


 
.log
Exact Audio Copy V1.0 beta 3 from 29. August 2011
EAC extraction logfile from 18. May 2015, 15:19
Kaoru Abe / Studio Session 1976.3.12
Used drive : HL-DT-STDVDRAM SP60NB50 Adapter: 2 ID: 0
Read mode : Secure
Utilize accurate stream : Yes
Defeat audio cache : Yes
Make use of C2 pointers : No
Read offset correction : 6
Overread into Lead-In and Lead-Out : No
Fill up missing offset samples with silence : Yes
Delete leading and trailing silent blocks : No
Null samples used in CRC calculations : Yes
Used interface : Native Win32 interface for Win NT & 2000
Gap handling : Appended to previous track
Used output format : User Defined Encoder
Selected bitrate : 1024 kBit/s
Quality : High
Add ID3 tag : No
Command line compressor : C:\Program Files (x86)\Exact Audio Copy\Flac\flac.exe
Additional command line options : -8 -V -T "ARTIST=%artist%" -T "TITLE=%title%" -T "ALBUM=%albumtitle%" -T "DATE=%year%" -T "TRACKNUMBER=%tracknr%" -T "GENRE=%genre%" -T "PERFORMER=%albuminterpret%" -T "COMPOSER=%composer%" %haslyrics%--tag-from-file=LYRICS="%lyricsfile%"%haslyrics% -T "ALBUMARTIST=%albumartist%" -T "DISCNUMBER=%cdnumber%" -T "TOTALDISCS=%totalcds%" -T "TOTALTRACKS=%numtracks%" -T "COMMENT=%comment%" %source% -o %dest%
TOC of the extracted CD
Track | Start | Length | Start sector | End sector
---------------------------------------------------------
1 | 0:00.00 | 5:33.27 | 0 | 25001
2 | 5:33.27 | 6:55.03 | 25002 | 56129
3 | 12:28.30 | 6:19.45 | 56130 | 84599
4 | 18:48.00 | 4:42.00 | 84600 | 105749
5 | 23:30.00 | 8:48.45 | 105750 | 145394
6 | 32:18.45 | 44:49.30 | 145395 | 347099
Track 1
Filename C:\FLAC Rips\Kaoru Abe - Studio Session 1976.3.12 (1992) [FLAC] {POCD-9344}\01 - Piano.wav
Pre-gap length 0:00:02.00
Peak level 92.5 %
Extraction speed 1.3 X
Track quality 100.0 %
Test CRC 6307DCD9
Copy CRC 6307DCD9
Cannot be verified as accurate (confidence 1) [E5D54111], AccurateRip returned [0B607B0E] (AR v2)
Copy OK
Track 2
Filename C:\FLAC Rips\Kaoru Abe - Studio Session 1976.3.12 (1992) [FLAC] {POCD-9344}\02 - Harmonica.wav
Pre-gap length 0:00:04.29
Peak level 98.0 %
Extraction speed 1.5 X
Track quality 100.0 %
Test CRC E0AF5E89
Copy CRC E0AF5E89
Cannot be verified as accurate (confidence 2) [517BF409], AccurateRip returned [10F26F95] (AR v2)
Copy OK
Track 3
Filename C:\FLAC Rips\Kaoru Abe - Studio Session 1976.3.12 (1992) [FLAC] {POCD-9344}\03 - Harmonica.wav
Pre-gap length 0:00:02.40
Peak level 98.1 %
Extraction speed 1.7 X
Track quality 100.0 %
Test CRC 8F3DAC19
Copy CRC 8F3DAC19
Cannot be verified as accurate (confidence 2) [F939C51C], AccurateRip returned [E0493489] (AR v2)
Copy OK
Track 4
Filename C:\FLAC Rips\Kaoru Abe - Studio Session 1976.3.12 (1992) [FLAC] {POCD-9344}\04 - Alto Saxophone.wav
Pre-gap length 0:00:04.00
Peak level 97.9 %
Extraction speed 1.7 X
Track quality 100.0 %
Test CRC C8647A22
Copy CRC C8647A22
Cannot be verified as accurate (confidence 2) [956C9CE0], AccurateRip returned [F62927A5] (AR v2)
Copy OK
Track 5
Filename C:\FLAC Rips\Kaoru Abe - Studio Session 1976.3.12 (1992) [FLAC] {POCD-9344}\05 - Alto Saxophone.wav
Pre-gap length 0:00:03.00
Peak level 95.4 %
Extraction speed 2.0 X
Track quality 100.0 %
Test CRC 432CE8A5
Copy CRC 432CE8A5
Cannot be verified as accurate (confidence 2) [E677C959], AccurateRip returned [90E5B85C] (AR v2)
Copy OK
Track 6
Filename C:\FLAC Rips\Kaoru Abe - Studio Session 1976.3.12 (1992) [FLAC] {POCD-9344}\06 - Alto Saxophone.wav
Pre-gap length 0:00:07.60
Peak level 97.9 %
Extraction speed 2.6 X
Track quality 100.0 %
Test CRC 36DEAE34
Copy CRC 36DEAE34
Cannot be verified as accurate (confidence 2) [AB3A8141], AccurateRip returned [57DB8794] (AR v2)
Copy OK
No tracks could be verified as accurate
You may have a different pressing from the one(s) in the database
No errors occurred
End of status report
---- CUETools DB Plugin V2.1.3
[CTDB TOCID: q_iZJoI4W6wl87O1u8dQpMDjlC0-] disk not present in database, Submit result: q_iZJoI4W6wl87O1u8dQpMDjlC0- has been uploaded
==== Log checksum 2A00C11A6E522A420146BABE1F994475D435D3A61A30B8E573A9E28C590664A5 ====
 
.cue
REM GENRE Jazz
REM DATE 1976
REM DISCID 34121406
REM COMMENT "ExactAudioCopy v1.0b3"
CATALOG 4540957004066
PERFORMER "Kaoru Abe"
TITLE "Studio Session 1976.3.12"
FILE "01 - Piano.wav" WAVE
TRACK 01 AUDIO
TITLE "Piano"
PERFORMER "Kaoru Abe"
ISRC JPH900400010
INDEX 01 00:00:00
TRACK 02 AUDIO
TITLE "Harmonica"
PERFORMER "Kaoru Abe"
ISRC JPH900400020
INDEX 00 05:29:05
FILE "02 - Harmonica.wav" WAVE
INDEX 01 00:00:00
TRACK 03 AUDIO
TITLE "Harmonica"
PERFORMER "Kaoru Abe"
ISRC JPH900400030
INDEX 00 06:52:48
FILE "03 - Harmonica.wav" WAVE
INDEX 01 00:00:00
TRACK 04 AUDIO
TITLE "Alto Saxophone"
PERFORMER "Kaoru Abe"
ISRC JPH900400040
INDEX 00 06:15:45
FILE "04 - Alto Saxophone.wav" WAVE
INDEX 01 00:00:00
TRACK 05 AUDIO
TITLE "Alto Saxophone"
PERFORMER "Kaoru Abe"
ISRC JPH900400050
INDEX 00 04:39:00
FILE "05 - Alto Saxophone.wav" WAVE
INDEX 01 00:00:00
TRACK 06 AUDIO
TITLE "Alto Saxophone"
PERFORMER "Kaoru Abe"
ISRC JPH900400060
INDEX 00 08:41:00
FILE "06 - Alto Saxophone.wav" WAVE
INDEX 01 00:00:00

другие релизы
По всем вопросам пишите личное сообщение пользователю M0p94ok.
17:47
143
Нет комментариев. Ваш будет первым!