Вы используете незарегистрированную версию компонента "Вкладки"!

Поиск

(free jazz) [cd] Kali Z. Fasteau & Kidd Jordan - Live at the Kerava Jazz Festival Finland (2007), FLAC (tracks+.cue), lossless

(free jazz) [cd] Kali Z. Fasteau & Kidd Jordan - Live at the Kerava Jazz Festival Finland (2007), FLAC (tracks+.cue), lossless
Треклист:
(free jazz) [cd] Kali Z. Fasteau & Kidd Jordan - Live at the Kerava Jazz Festival Finland (2007), FLAC (tracks+.cue), lossless


Kali Z. Fasteau & Kidd Jordan - Live at the Kerava Jazz Festival Finland (2007)

Жанр: free jazz
Год выпуска: 2007
Издатель (лейбл):Flying Note / 9012
Формат: FLAC (tracks+.cue)
Битрейт аудио: lossless
Продолжительность 1`03`37
Источник: what.cd

tracks

1 Sound Tranceport
2 Transcendance
3 Reed Trance Plant
4 Received Wisdom
5 Sibelius Suite
6 Talking Trance
7 Violit Violines
8 Exponential Time
9 Sound Science


 
.log
Exact Audio Copy V1.0 beta 3 from 29. August 2011
EAC extraction logfile from 25. June 2015, 15:24
Kali Z. Fasteau & Kidd Jordan / Live at the Kerava Jazz Festival: Finland
Used drive : HL-DT-STDVDRAM SP60NB50 Adapter: 0 ID: 0
Read mode : Secure
Utilize accurate stream : Yes
Defeat audio cache : Yes
Make use of C2 pointers : No
Read offset correction : 6
Overread into Lead-In and Lead-Out : No
Fill up missing offset samples with silence : Yes
Delete leading and trailing silent blocks : No
Null samples used in CRC calculations : Yes
Used interface : Native Win32 interface for Win NT & 2000
Gap handling : Appended to previous track
Used output format : User Defined Encoder
Selected bitrate : 1024 kBit/s
Quality : High
Add ID3 tag : No
Command line compressor : C:\Program Files (x86)\FLAC\flac.exe
Additional command line options : -8 -V -T "ARTIST=%artist%" -T "TITLE=%title%" -T "ALBUM=%albumtitle%" -T "DATE=%year%" -T "TRACKNUMBER=%tracknr%" -T "GENRE=%genre%" -T "PERFORMER=%albuminterpret%" -T "COMPOSER=%composer%" %haslyrics%--tag-from-file=LYRICS="%lyricsfile%"%haslyrics% -T "ALBUMARTIST=%albumartist%" -T "DISCNUMBER=%cdnumber%" -T "TOTALDISCS=%totalcds%" -T "TOTALTRACKS=%numtracks%" -T "COMMENT=%comment%" %source% -o %dest%
TOC of the extracted CD
Track | Start | Length | Start sector | End sector
---------------------------------------------------------
1 | 0:00.00 | 4:52.37 | 0 | 21936
2 | 4:52.37 | 10:49.30 | 21937 | 70641
3 | 15:41.67 | 7:10.35 | 70642 | 102926
4 | 22:52.27 | 9:20.20 | 102927 | 144946
5 | 32:12.47 | 7:03.34 | 144947 | 176705
6 | 39:16.06 | 4:50.71 | 176706 | 198526
7 | 44:07.02 | 4:36.13 | 198527 | 219239
8 | 48:43.15 | 7:30.36 | 219240 | 253025
9 | 56:13.51 | 7:22.36 | 253026 | 286211
Track 1
Filename C:\EAC Rips\Kali Z. Fasteau & Kidd Jordan - Live at the Kerava Jazz Festival Finland (2007) [FLAC]\01 Sound Tranceport.wav
Pre-gap length 0:00:02.00
Peak level 99.3 %
Extraction speed 1.1 X
Track quality 99.9 %
Test CRC 83CE8F72
Copy CRC 83CE8F72
Track not present in AccurateRip database
Copy OK
Track 2
Filename C:\EAC Rips\Kali Z. Fasteau & Kidd Jordan - Live at the Kerava Jazz Festival Finland (2007) [FLAC]\02 Trancendance.wav
Pre-gap length 0:00:02.00
Peak level 100.0 %
Extraction speed 1.5 X
Track quality 99.9 %
Test CRC 250455C1
Copy CRC 250455C1
Track not present in AccurateRip database
Copy OK
Track 3
Filename C:\EAC Rips\Kali Z. Fasteau & Kidd Jordan - Live at the Kerava Jazz Festival Finland (2007) [FLAC]\03 Reed Trance Plant.wav
Pre-gap length 0:00:02.00
Peak level 97.5 %
Extraction speed 1.8 X
Track quality 100.0 %
Test CRC CAEDDAB4
Copy CRC CAEDDAB4
Track not present in AccurateRip database
Copy OK
Track 4
Filename C:\EAC Rips\Kali Z. Fasteau & Kidd Jordan - Live at the Kerava Jazz Festival Finland (2007) [FLAC]\04 Received Wisdom.wav
Pre-gap length 0:00:02.00
Peak level 98.2 %
Extraction speed 2.0 X
Track quality 100.0 %
Test CRC D00DEFC0
Copy CRC D00DEFC0
Track not present in AccurateRip database
Copy OK
Track 5
Filename C:\EAC Rips\Kali Z. Fasteau & Kidd Jordan - Live at the Kerava Jazz Festival Finland (2007) [FLAC]\05 Sibelius Suite.wav
Pre-gap length 0:00:02.00
Peak level 98.8 %
Extraction speed 2.2 X
Track quality 100.0 %
Test CRC 18D2F733
Copy CRC 18D2F733
Track not present in AccurateRip database
Copy OK
Track 6
Filename C:\EAC Rips\Kali Z. Fasteau & Kidd Jordan - Live at the Kerava Jazz Festival Finland (2007) [FLAC]\06 Talking Trance.wav
Pre-gap length 0:00:02.00
Peak level 95.4 %
Extraction speed 2.2 X
Track quality 100.0 %
Test CRC 9F102088
Copy CRC 9F102088
Track not present in AccurateRip database
Copy OK
Track 7
Filename C:\EAC Rips\Kali Z. Fasteau & Kidd Jordan - Live at the Kerava Jazz Festival Finland (2007) [FLAC]\07 Violit Violines.wav
Pre-gap length 0:00:02.00
Peak level 95.6 %
Extraction speed 2.3 X
Track quality 100.0 %
Test CRC 945CFD26
Copy CRC 945CFD26
Track not present in AccurateRip database
Copy OK
Track 8
Filename C:\EAC Rips\Kali Z. Fasteau & Kidd Jordan - Live at the Kerava Jazz Festival Finland (2007) [FLAC]\08 Exponential Time.wav
Pre-gap length 0:00:02.00
Peak level 99.3 %
Extraction speed 2.5 X
Track quality 100.0 %
Test CRC 34E2270D
Copy CRC 34E2270D
Track not present in AccurateRip database
Copy OK
Track 9
Filename C:\EAC Rips\Kali Z. Fasteau & Kidd Jordan - Live at the Kerava Jazz Festival Finland (2007) [FLAC]\09 Sound Science.wav
Pre-gap length 0:00:02.00
Peak level 100.0 %
Extraction speed 2.6 X
Track quality 100.0 %
Test CRC A741467A
Copy CRC A741467A
Track not present in AccurateRip database
Copy OK
None of the tracks are present in the AccurateRip database
No errors occurred
End of status report
---- CUETools DB Plugin V2.1.3
[CTDB TOCID: 8jVge20tra7zade2Je1rqlC1vt4-] disk not present in database, Submit result: 8jVge20tra7zade2Je1rqlC1vt4- has been uploaded
==== Log checksum 0EA8251099E74CCEC03D7CC1DA047EEA75518DC6C9B3974949771CDB89EFD9EB ====
 
.cue
REM GENRE Jazz
REM DATE 2007
REM DISCID 8C0EE809
REM COMMENT "ExactAudioCopy v1.0b3"
PERFORMER "Kali Z. Fasteau & Kidd Jordan"
TITLE "Live at the Kerava Jazz Festival: Finland"
FILE "01 Sound Tranceport.wav" WAVE
TRACK 01 AUDIO
TITLE "Sound Tranceport"
PERFORMER "Kali Z. Fasteau & Kidd Jordan"
INDEX 01 00:00:00
TRACK 02 AUDIO
TITLE "Trancendance"
PERFORMER "Kali Z. Fasteau & Kidd Jordan"
INDEX 00 04:50:37
FILE "02 Trancendance.wav" WAVE
INDEX 01 00:00:00
TRACK 03 AUDIO
TITLE "Reed Trance Plant"
PERFORMER "Kali Z. Fasteau & Kidd Jordan"
INDEX 00 10:47:30
FILE "03 Reed Trance Plant.wav" WAVE
INDEX 01 00:00:00
TRACK 04 AUDIO
TITLE "Received Wisdom"
PERFORMER "Kali Z. Fasteau & Kidd Jordan"
INDEX 00 07:08:35
FILE "04 Received Wisdom.wav" WAVE
INDEX 01 00:00:00
TRACK 05 AUDIO
TITLE "Sibelius Suite"
PERFORMER "Kali Z. Fasteau & Kidd Jordan"
INDEX 00 09:18:20
FILE "05 Sibelius Suite.wav" WAVE
INDEX 01 00:00:00
TRACK 06 AUDIO
TITLE "Talking Trance"
PERFORMER "Kali Z. Fasteau & Kidd Jordan"
INDEX 00 07:01:34
FILE "06 Talking Trance.wav" WAVE
INDEX 01 00:00:00
TRACK 07 AUDIO
TITLE "Violit Violines"
PERFORMER "Kali Z. Fasteau & Kidd Jordan"
INDEX 00 04:48:71
FILE "07 Violit Violines.wav" WAVE
INDEX 01 00:00:00
TRACK 08 AUDIO
TITLE "Exponential Time"
PERFORMER "Kali Z. Fasteau & Kidd Jordan"
INDEX 00 04:34:13
FILE "08 Exponential Time.wav" WAVE
INDEX 01 00:00:00
TRACK 09 AUDIO
TITLE "Sound Science"
PERFORMER "Kali Z. Fasteau & Kidd Jordan"
INDEX 00 07:28:36
FILE "09 Sound Science.wav" WAVE
INDEX 01 00:00:00

http://www.discogs.com/Kali-Fasteau-Kidd-Jordan-Newman-Taylor-Baker-Live-At-The-K.../release/4614459
другие релизы
По всем вопросам пишите личное сообщение пользователю M0p94ok.
14:17
161
Нет комментариев. Ваш будет первым!