Вы используете незарегистрированную версию компонента "Вкладки"!

Поиск

(free jazz) [cd] Kali Fasteau - Vivid (2001), FLAC (tracks+.cue), lossless

(free jazz) [cd] Kali Fasteau - Vivid (2001), FLAC (tracks+.cue), lossless
Треклист:
(free jazz) [cd] Kali Fasteau - Vivid (2001), FLAC (tracks+.cue), lossless


Kali Fasteau - Vivid (2001)

Жанр: free jazz
Год выпуска: 2001
Издатель (лейбл):Flying Note / 9007
Формат: FLAC (tracks+.cue)
Битрейт аудио: lossless
Продолжительность 1`11`15
Источник: what.cd

tracks

1 Orange 2:30
2 Red 5:05
3 Turquoise 4:26
4 Aquamarine 2:04
5 Sun Yellow 12:06
6 Chartreuse 6:27
7 Tangerine 5:40
8 Sienna-(This moment) 1:50
9 Taml Blue 2:05
10 Royal Purple 6:16
11 Pimento 5:07
12 Heliotrope 5:10
13 Violet 1:42
14 Sea Green 5:45
15 Magenta 6:21


 
.log
Exact Audio Copy V1.0 beta 3 from 29. August 2011
EAC extraction logfile from 27. June 2015, 15:42
Kali Fasteau / Vivid
Used drive : HL-DT-STDVDRAM SP60NB50 Adapter: 0 ID: 0
Read mode : Secure
Utilize accurate stream : Yes
Defeat audio cache : Yes
Make use of C2 pointers : No
Read offset correction : 6
Overread into Lead-In and Lead-Out : No
Fill up missing offset samples with silence : Yes
Delete leading and trailing silent blocks : No
Null samples used in CRC calculations : Yes
Used interface : Native Win32 interface for Win NT & 2000
Gap handling : Appended to previous track
Used output format : User Defined Encoder
Selected bitrate : 1024 kBit/s
Quality : High
Add ID3 tag : No
Command line compressor : C:\Program Files (x86)\FLAC\flac.exe
Additional command line options : -8 -V -T "ARTIST=%artist%" -T "TITLE=%title%" -T "ALBUM=%albumtitle%" -T "DATE=%year%" -T "TRACKNUMBER=%tracknr%" -T "GENRE=%genre%" -T "PERFORMER=%albuminterpret%" -T "COMPOSER=%composer%" %haslyrics%--tag-from-file=LYRICS="%lyricsfile%"%haslyrics% -T "ALBUMARTIST=%albumartist%" -T "DISCNUMBER=%cdnumber%" -T "TOTALDISCS=%totalcds%" -T "TOTALTRACKS=%numtracks%" -T "COMMENT=%comment%" %source% -o %dest%
TOC of the extracted CD
Track | Start | Length | Start sector | End sector
---------------------------------------------------------
1 | 0:00.00 | 2:31.44 | 0 | 11368
2 | 2:31.44 | 5:07.39 | 11369 | 34432
3 | 7:39.08 | 4:28.52 | 34433 | 54584
4 | 12:07.60 | 2:06.24 | 54585 | 64058
5 | 14:14.09 | 12:08.52 | 64059 | 118710
6 | 26:22.61 | 6:29.10 | 118711 | 147895
7 | 32:51.71 | 5:42.43 | 147896 | 173588
8 | 38:34.39 | 1:51.62 | 173589 | 181975
9 | 40:26.26 | 2:05.54 | 181976 | 191404
10 | 42:32.05 | 4:18.57 | 191405 | 210811
11 | 46:50.62 | 5:09.03 | 210812 | 233989
12 | 51:59.65 | 3:12.02 | 233990 | 248391
13 | 55:11.67 | 1:44.24 | 248392 | 256215
14 | 56:56.16 | 5:47.13 | 256216 | 282253
15 | 62:43.29 | 8:21.29 | 282254 | 319857
Track 1
Filename C:\EAC Rips\Kali Fasteau - Vivid (2001) [FLAC]\01 Orange.wav
Pre-gap length 0:00:02.00
Peak level 93.1 %
Extraction speed 1.1 X
Track quality 100.0 %
Test CRC 51AF79A7
Copy CRC 51AF79A7
Accurately ripped (confidence 1) [18EB3053] (AR v2)
Copy OK
Track 2
Filename C:\EAC Rips\Kali Fasteau - Vivid (2001) [FLAC]\02 Red.wav
Pre-gap length 0:00:02.00
Peak level 92.4 %
Extraction speed 1.4 X
Track quality 100.0 %
Test CRC 404AF4F3
Copy CRC 404AF4F3
Accurately ripped (confidence 1) [87BB1E34] (AR v2)
Copy OK
Track 3
Filename C:\EAC Rips\Kali Fasteau - Vivid (2001) [FLAC]\03 Turquoise.wav
Pre-gap length 0:00:02.01
Peak level 92.2 %
Extraction speed 1.5 X
Track quality 100.0 %
Test CRC E61FA038
Copy CRC E61FA038
Accurately ripped (confidence 1) [36A42D9D] (AR v2)
Copy OK
Track 4
Filename C:\EAC Rips\Kali Fasteau - Vivid (2001) [FLAC]\04 Aquamarine.wav
Pre-gap length 0:00:02.00
Peak level 90.4 %
Extraction speed 1.4 X
Track quality 100.0 %
Test CRC 9F93D1FC
Copy CRC 9F93D1FC
Accurately ripped (confidence 1) [DA1A3DD3] (AR v2)
Copy OK
Track 5
Filename C:\EAC Rips\Kali Fasteau - Vivid (2001) [FLAC]\05 Sun Yellow.wav
Pre-gap length 0:00:02.01
Peak level 87.7 %
Extraction speed 1.9 X
Track quality 100.0 %
Test CRC 322F6200
Copy CRC 322F6200
Accurately ripped (confidence 1) [9C548A52] (AR v2)
Copy OK
Track 6
Filename C:\EAC Rips\Kali Fasteau - Vivid (2001) [FLAC]\06 Chartreuse.wav
Pre-gap length 0:00:02.00
Peak level 92.1 %
Extraction speed 2.0 X
Track quality 100.0 %
Test CRC 8B832DB2
Copy CRC 8B832DB2
Accurately ripped (confidence 1) [B1E6EEA1] (AR v2)
Copy OK
Track 7
Filename C:\EAC Rips\Kali Fasteau - Vivid (2001) [FLAC]\07 Tangerine.wav
Pre-gap length 0:00:02.00
Peak level 53.1 %
Extraction speed 2.1 X
Track quality 100.0 %
Test CRC A6A8CD4A
Copy CRC A6A8CD4A
Accurately ripped (confidence 1) [5AC10F01] (AR v2)
Copy OK
Track 8
Filename C:\EAC Rips\Kali Fasteau - Vivid (2001) [FLAC]\08 Sienna (This Moment).wav
Pre-gap length 0:00:02.01
Peak level 91.2 %
Extraction speed 1.8 X
Track quality 100.0 %
Test CRC 40D71CC6
Copy CRC 40D71CC6
Accurately ripped (confidence 1) [E428AF79] (AR v2)
Copy OK
Track 9
Filename C:\EAC Rips\Kali Fasteau - Vivid (2001) [FLAC]\09 Tamil Blue.wav
Pre-gap length 0:00:02.00
Peak level 86.4 %
Extraction speed 1.9 X
Track quality 100.0 %
Test CRC 5D4397CF
Copy CRC 5D4397CF
Accurately ripped (confidence 1) [846F0443] (AR v2)
Copy OK
Track 10
Filename C:\EAC Rips\Kali Fasteau - Vivid (2001) [FLAC]\10 Royal Purple.wav
Pre-gap length 0:00:02.01
Peak level 66.3 %
Extraction speed 2.3 X
Track quality 100.0 %
Test CRC 497B2AEA
Copy CRC 497B2AEA
Accurately ripped (confidence 1) [2138BA3D] (AR v2)
Copy OK
Track 11
Filename C:\EAC Rips\Kali Fasteau - Vivid (2001) [FLAC]\11 Pimento.wav
Pre-gap length 0:00:02.00
Peak level 91.7 %
Extraction speed 2.4 X
Track quality 100.0 %
Test CRC EFBF6231
Copy CRC EFBF6231
Accurately ripped (confidence 1) [C033424E] (AR v2)
Copy OK
Track 12
Filename C:\EAC Rips\Kali Fasteau - Vivid (2001) [FLAC]\12 Heliotrope.wav
Pre-gap length 0:00:02.00
Peak level 83.6 %
Extraction speed 2.3 X
Track quality 100.0 %
Test CRC 31209D60
Copy CRC 31209D60
Accurately ripped (confidence 1) [EB07CF9E] (AR v2)
Copy OK
Track 13
Filename C:\EAC Rips\Kali Fasteau - Vivid (2001) [FLAC]\13 Violet.wav
Pre-gap length 0:00:02.00
Peak level 78.8 %
Extraction speed 2.1 X
Track quality 100.0 %
Test CRC 0AF6BED1
Copy CRC 0AF6BED1
Accurately ripped (confidence 1) [B3A903E0] (AR v2)
Copy OK
Track 14
Filename C:\EAC Rips\Kali Fasteau - Vivid (2001) [FLAC]\14 Sea Green.wav
Pre-gap length 0:00:02.01
Peak level 59.5 %
Extraction speed 2.6 X
Track quality 100.0 %
Test CRC 38D2063D
Copy CRC 38D2063D
Accurately ripped (confidence 1) [E9A1776F] (AR v2)
Copy OK
Track 15
Filename C:\EAC Rips\Kali Fasteau - Vivid (2001) [FLAC]\15 Magenta.wav
Pre-gap length 0:00:02.00
Peak level 92.5 %
Extraction speed 2.8 X
Track quality 100.0 %
Test CRC E5B206FA
Copy CRC E5B206FA
Accurately ripped (confidence 1) [A58A31C3] (AR v2)
Copy OK
All tracks accurately ripped
No errors occurred
End of status report
---- CUETools DB Plugin V2.1.3
[CTDB TOCID: fcw9U5QbNL9DSZzau0Uf.hlAaVw-] disk not present in database, Submit result: fcw9U5QbNL9DSZzau0Uf.hlAaVw- has been uploaded
==== Log checksum FA84C5D9231A59B05C3322F67F4ED3255FC8CAE9C45E3977CD50B4E6690CAE88 ====
 
.cue
REM GENRE Jazz
REM DATE 2001
REM DISCID D010A80F
REM COMMENT "ExactAudioCopy v1.0b3"
PERFORMER "Kali Fasteau"
TITLE "Vivid"
FILE "01 Orange.wav" WAVE
TRACK 01 AUDIO
TITLE "Orange"
PERFORMER "Kali Fasteau"
INDEX 01 00:00:00
TRACK 02 AUDIO
TITLE "Red"
PERFORMER "Kali Fasteau"
INDEX 00 02:29:44
FILE "02 Red.wav" WAVE
INDEX 01 00:00:00
TRACK 03 AUDIO
TITLE "Turquoise"
PERFORMER "Kali Fasteau"
INDEX 00 05:05:38
FILE "03 Turquoise.wav" WAVE
INDEX 01 00:00:00
TRACK 04 AUDIO
TITLE "Aquamarine"
PERFORMER "Kali Fasteau"
INDEX 00 04:26:52
FILE "04 Aquamarine.wav" WAVE
INDEX 01 00:00:00
TRACK 05 AUDIO
TITLE "Sun Yellow"
PERFORMER "Kali Fasteau"
INDEX 00 02:04:23
FILE "05 Sun Yellow.wav" WAVE
INDEX 01 00:00:00
TRACK 06 AUDIO
TITLE "Chartreuse"
PERFORMER "Kali Fasteau"
INDEX 00 12:06:52
FILE "06 Chartreuse.wav" WAVE
INDEX 01 00:00:00
TRACK 07 AUDIO
TITLE "Tangerine"
PERFORMER "Kali Fasteau"
INDEX 00 06:27:10
FILE "07 Tangerine.wav" WAVE
INDEX 01 00:00:00
TRACK 08 AUDIO
TITLE "Sienna (This Moment)"
PERFORMER "Kali Fasteau"
INDEX 00 05:40:42
FILE "08 Sienna (This Moment).wav" WAVE
INDEX 01 00:00:00
TRACK 09 AUDIO
TITLE "Tamil Blue"
PERFORMER "Kali Fasteau"
INDEX 00 01:49:62
FILE "09 Tamil Blue.wav" WAVE
INDEX 01 00:00:00
TRACK 10 AUDIO
TITLE "Royal Purple"
PERFORMER "Kali Fasteau"
INDEX 00 02:03:53
FILE "10 Royal Purple.wav" WAVE
INDEX 01 00:00:00
TRACK 11 AUDIO
TITLE "Pimento"
PERFORMER "Kali Fasteau"
INDEX 00 04:16:57
FILE "11 Pimento.wav" WAVE
INDEX 01 00:00:00
TRACK 12 AUDIO
TITLE "Heliotrope"
PERFORMER "Kali Fasteau"
INDEX 00 05:07:03
FILE "12 Heliotrope.wav" WAVE
INDEX 01 00:00:00
TRACK 13 AUDIO
TITLE "Violet"
PERFORMER "Kali Fasteau"
INDEX 00 03:10:02
FILE "13 Violet.wav" WAVE
INDEX 01 00:00:00
TRACK 14 AUDIO
TITLE "Sea Green"
PERFORMER "Kali Fasteau"
INDEX 00 01:42:23
FILE "14 Sea Green.wav" WAVE
INDEX 01 00:00:00
TRACK 15 AUDIO
TITLE "Magenta"
PERFORMER "Kali Fasteau"
INDEX 00 05:45:13
FILE "15 Magenta.wav" WAVE
INDEX 01 00:00:00

http://www.discogs.com/Kali-Fasteau-Vivid/release/6418142
другие релизы
По всем вопросам пишите личное сообщение пользователю M0p94ok.
14:16
226
Нет комментариев. Ваш будет первым!