Поиск

(free jazz) [cd] Juhani Aaltonen - To Future Memories 2010, FLAC (tracks+.cue), lossless

(free jazz) [cd] Juhani Aaltonen - To Future Memories 2010, FLAC (tracks+.cue), lossless
Треклист:
(free jazz) [cd] Juhani Aaltonen - To Future Memories 2010, FLAC (tracks+.cue), lossless


Juhani Aaltonen - To Future Memories 2010

Жанр: free jazz
Год выпуска: 2010
Издатель (лейбл): TUM Records ‎/TUM CD 036
Формат: FLAC (tracks+.cue)
Битрейт аудио: lossless
Продолжительность
Источник: what.cd
Double Bass [Left] – Ville Herrala
Double Bass [Right] – Ulf Krokfors
Drums – Reino Laine
Flute – Juhani Aaltonen (tracks: 2, 4)
Flute [Bass Flute] – Juhani Aaltonen (tracks: 4)
Piano, Harp – Iro Haarla
Tenor Saxophone – Juhani Aaltonen

tracks

1 Reminiscence 8:45
2 Kukunor 7:35
3 To Future Memories (Dedicated To Jussi Kylätasku) 8:03
4 Hiisi 9:04
5 Ursula (For The Polish Ladies) 3:06
6 All The Birds 9:39
7 Haze 7:13


 
.log
Exact Audio Copy V1.0 beta 4 from 7. December 2014
EAC extraction logfile from 20. May 2016, 13:11
Juhani Aaltonen / To Future Memories
Used drive : MATSHITABD-CMB UJ160 Adapter: 1 ID: 0
Read mode : Secure
Utilize accurate stream : Yes
Defeat audio cache : Yes
Make use of C2 pointers : No
Read offset correction : 103
Overread into Lead-In and Lead-Out : No
Fill up missing offset samples with silence : Yes
Delete leading and trailing silent blocks : No
Null samples used in CRC calculations : Yes
Used interface : Native Win32 interface for Win NT & 2000
Gap handling : Appended to previous track
Used output format : User Defined Encoder
Selected bitrate : 1024 kBit/s
Quality : High
Add ID3 tag : No
Command line compressor : C:\Program Files (x86)\Exact Audio Copy\FLAC\FLAC.EXE
Additional command line options : -8 -V -T "ARTIST=%artist%" -T "TITLE=%title%" -T "ALBUM=%albumtitle%" -T "DATE=%year%" -T "TRACKNUMBER=%tracknr%" -T "GENRE=%genre%" -T "PERFORMER=%albuminterpret%" -T "COMPOSER=%composer%" %haslyrics%--tag-from-file=LYRICS="%lyricsfile%"%haslyrics% -T "ALBUMARTIST=%albumartist%" -T "DISCNUMBER=%cdnumber%" -T "TOTALDISCS=%totalcds%" -T "TOTALTRACKS=%numtracks%" -T "COMMENT=%comment%" %source% -o %dest%
TOC of the extracted CD
Track | Start | Length | Start sector | End sector
---------------------------------------------------------
1 | 0:00.00 | 8:49.67 | 0 | 39741
2 | 8:49.67 | 7:40.23 | 39742 | 74264
3 | 16:30.15 | 8:07.70 | 74265 | 110859
4 | 24:38.10 | 9:09.09 | 110860 | 152043
5 | 33:47.19 | 3:11.01 | 152044 | 166369
6 | 36:58.20 | 9:44.37 | 166370 | 210206
7 | 46:42.57 | 7:12.47 | 210207 | 242653
Track 1
Filename C:\Rips\Juhani Aaltonen - 2010 - To Future Memories\01 Reminiscence.wav
Pre-gap length 0:00:02.00
Peak level 97.7 %
Extraction speed 2.5 X
Track quality 99.9 %
Test CRC 4223D92F
Copy CRC 4223D92F
Track not present in AccurateRip database
Copy OK
Track 2
Filename C:\Rips\Juhani Aaltonen - 2010 - To Future Memories\02 Kukunor.wav
Pre-gap length 0:00:04.17
Peak level 97.7 %
Extraction speed 3.3 X
Track quality 100.0 %
Test CRC 9598AFB5
Copy CRC 9598AFB5
Track not present in AccurateRip database
Copy OK
Track 3
Filename C:\Rips\Juhani Aaltonen - 2010 - To Future Memories\03 To Future Memories.wav
Pre-gap length 0:00:04.08
Peak level 97.7 %
Extraction speed 3.7 X
Track quality 100.0 %
Test CRC 4E4E9B10
Copy CRC 4E4E9B10
Track not present in AccurateRip database
Copy OK
Track 4
Filename C:\Rips\Juhani Aaltonen - 2010 - To Future Memories\04 Hiisi.wav
Pre-gap length 0:00:04.12
Peak level 97.7 %
Extraction speed 3.6 X
Track quality 99.9 %
Test CRC 9ED49A36
Copy CRC 9ED49A36
Track not present in AccurateRip database
Copy OK
Track 5
Filename C:\Rips\Juhani Aaltonen - 2010 - To Future Memories\05 Ursula.wav
Pre-gap length 0:00:04.05
Peak level 97.7 %
Extraction speed 3.9 X
Track quality 100.0 %
Test CRC 506D2024
Copy CRC 506D2024
Track not present in AccurateRip database
Copy OK
Track 6
Filename C:\Rips\Juhani Aaltonen - 2010 - To Future Memories\06 All The Birds.wav
Pre-gap length 0:00:04.59
Peak level 97.7 %
Extraction speed 4.7 X
Track quality 100.0 %
Test CRC 12DE016C
Copy CRC 12DE016C
Track not present in AccurateRip database
Copy OK
Track 7
Filename C:\Rips\Juhani Aaltonen - 2010 - To Future Memories\07 Haze.wav
Pre-gap length 0:00:04.66
Peak level 82.2 %
Extraction speed 4.8 X
Track quality 100.0 %
Test CRC 50CF9A0B
Copy CRC 50CF9A0B
Track not present in AccurateRip database
Copy OK
None of the tracks are present in the AccurateRip database
No errors occurred
End of status report
---- CUETools DB Plugin V2.1.4
[CTDB TOCID: ssRz.pBc6Ji99BgtAK1aA7ch9xg-] found
Submit result: ssRz.pBc6Ji99BgtAK1aA7ch9xg- has been confirmed
Track | CTDB Status
1 | (4/4) Accurately ripped
2 | (4/4) Accurately ripped
3 | (4/4) Accurately ripped
4 | (4/4) Accurately ripped
5 | (4/4) Accurately ripped
6 | (3/4) Accurately ripped
7 | (4/4) Accurately ripped
==== Log checksum 51203A941D2B9821E260F7F79E7C7B6B805B4F4FE883456EF4108286263B56AF ====
 
.cue
REM GENRE Jazz
REM DATE 2010
REM DISCID 4D0CA307
REM COMMENT "ExactAudioCopy v1.0b4"
PERFORMER "Juhani Aaltonen"
TITLE "To Future Memories"
FILE "01 Reminiscence.wav" WAVE
TRACK 01 AUDIO
TITLE "Reminiscence"
PERFORMER "Juhani Aaltonen"
ISRC FITU91300047
INDEX 01 00:00:00
TRACK 02 AUDIO
TITLE "Kukunor"
PERFORMER "Juhani Aaltonen"
ISRC FITU91300048
INDEX 00 08:45:50
FILE "02 Kukunor.wav" WAVE
INDEX 01 00:00:00
TRACK 03 AUDIO
TITLE "To Future Memories"
PERFORMER "Juhani Aaltonen"
ISRC FITU91300049
INDEX 00 07:36:15
FILE "03 To Future Memories.wav" WAVE
INDEX 01 00:00:00
TRACK 04 AUDIO
TITLE "Hiisi"
PERFORMER "Juhani Aaltonen"
ISRC FITU91300050
INDEX 00 08:03:58
FILE "04 Hiisi.wav" WAVE
INDEX 01 00:00:00
TRACK 05 AUDIO
TITLE "Ursula"
PERFORMER "Juhani Aaltonen"
ISRC FITU91300051
INDEX 00 09:05:04
FILE "05 Ursula.wav" WAVE
INDEX 01 00:00:00
TRACK 06 AUDIO
TITLE "All The Birds"
PERFORMER "Juhani Aaltonen"
ISRC FITU91300052
INDEX 00 03:06:17
FILE "06 All The Birds.wav" WAVE
INDEX 01 00:00:00
TRACK 07 AUDIO
TITLE "Haze"
PERFORMER "Juhani Aaltonen"
ISRC FITU91300053
INDEX 00 09:39:46
FILE "07 Haze.wav" WAVE
INDEX 01 00:00:00
https://www.discogs.com/Juhani-Aaltonen-To-Future-Memories/release/5139996
другие релизы
21:37
366
Нет комментариев. Ваш будет первым!