Поиск

(free jazz) [cd] Joe McPhee & Paal Nilssen-Love - Candy 2015 7 × CD, FLAC (tracks+.cue), lossless

(free jazz) [cd] Joe McPhee & Paal Nilssen-Love - Candy 2015 7 × CD, FLAC (tracks+.cue), lossless
(free jazz) [cd] Joe McPhee & Paal Nilssen-Love - Candy 2015 7 × CD, FLAC (tracks+.cue), lossless


Joe McPhee & Paal Nilssen-Love - Candy 2015

Жанр:free jazz
Год выпуска: 2015
Издатель (лейбл):PNL/PNL029
Формат: FLAC (tracks+.cue)
Битрейт аудио: lossless
Источник: what.cd
 
01 - 2007-06-19 - Molde


01 - 2007-06-19 - Molde

1.1 Molde Part 1 15:45
1.2 Molde Part 2 8:50
1.3 Molde Part 3 6:37
1.4 Molde Part 4 5:46
1.5 Molde Part 5 3:35
1.6 Molde Part 6 6:55
1.7 Molde Part 7 3:57
1.8 Molde Part 8 6:03

 
.log
X Lossless Decoder version 20151214 (149.1)
XLD extraction logfile from 2016-01-04 16:25:42 +0300
Joe McPhee, Paal Nilssen-Love / Molde
Used drive : HL-DT-ST DVDRW GX30N (revision RP09)
Media type : Pressed CD
Ripper mode : XLD Secure Ripper
Disable audio cache : OK for the drive with a cache less than 1375KiB
Make use of C2 pointers : NO
Read offset correction : 6
Max retry count : 100
Gap status : Analyzed, Appended (except HTOA)
TOC of the extracted CD
Track | Start | Length | Start sector | End sector
---------------------------------------------------------
1 | 00:00:00 | 15:45:28 | 0 | 70902
2 | 15:45:28 | 08:50:73 | 70903 | 110725
3 | 24:36:26 | 06:37:47 | 110726 | 140547
4 | 31:13:73 | 05:46:07 | 140548 | 166504
5 | 37:00:05 | 03:35:27 | 166505 | 182656
6 | 40:35:32 | 06:55:38 | 182657 | 213819
7 | 47:30:70 | 03:57:14 | 213820 | 231608
8 | 51:28:09 | 06:03:54 | 231609 | 258887
AccurateRip Summary
Disc not found in AccurateRip DB.
All Tracks
Album gain : -7.85 dB
Peak : 0.951324
Statistics
Read error : 0
Jitter error (maybe fixed) : 0
Retry sector count : 0
Damaged sector count : 0
Track 01
Filename : /Users/anch/Music/Grabbed/Joe McPhee, Paal Nilssen-Love/01 - 2007 - Molde/01 - Molde Part 1.flac
Pre-gap length : 00:02:00
Track gain : -8.39 dB
Peak : 0.951324
CRC32 hash (test run) : 3698B602
CRC32 hash : 3698B602
CRC32 hash (skip zero) : 0D2E9B72
AccurateRip v1 signature : FAB7BAB9
AccurateRip v2 signature : E8BD3D61
->Track not present in AccurateRip database.
Statistics
Read error : 0
Jitter error (maybe fixed) : 0
Retry sector count : 0
Damaged sector count : 0
Track 02
Filename : /Users/anch/Music/Grabbed/Joe McPhee, Paal Nilssen-Love/01 - 2007 - Molde/02 - Molde Part 2.flac
Track gain : -7.90 dB
Peak : 0.951324
CRC32 hash (test run) : A82FD3B2
CRC32 hash : A82FD3B2
CRC32 hash (skip zero) : A40A4F7E
AccurateRip v1 signature : F5CAEB6F
AccurateRip v2 signature : 3A0AF501
->Track not present in AccurateRip database.
Statistics
Read error : 0
Jitter error (maybe fixed) : 0
Retry sector count : 0
Damaged sector count : 0
Track 03
Filename : /Users/anch/Music/Grabbed/Joe McPhee, Paal Nilssen-Love/01 - 2007 - Molde/03 - Molde Part 3.flac
Track gain : -6.54 dB
Peak : 0.951324
CRC32 hash (test run) : 390E3286
CRC32 hash : 390E3286
CRC32 hash (skip zero) : 17C7B98F
AccurateRip v1 signature : 57BD232C
AccurateRip v2 signature : 8C461A02
->Track not present in AccurateRip database.
Statistics
Read error : 0
Jitter error (maybe fixed) : 0
Retry sector count : 0
Damaged sector count : 0
Track 04
Filename : /Users/anch/Music/Grabbed/Joe McPhee, Paal Nilssen-Love/01 - 2007 - Molde/04 - Molde Part 4.flac
Track gain : -8.31 dB
Peak : 0.951324
CRC32 hash (test run) : 2CB29BE5
CRC32 hash : 2CB29BE5
CRC32 hash (skip zero) : DD0FE4DE
AccurateRip v1 signature : 0290BA9B
AccurateRip v2 signature : 5D323B96
->Track not present in AccurateRip database.
Statistics
Read error : 0
Jitter error (maybe fixed) : 0
Retry sector count : 0
Damaged sector count : 0
Track 05
Filename : /Users/anch/Music/Grabbed/Joe McPhee, Paal Nilssen-Love/01 - 2007 - Molde/05 - Molde Part 5.flac
Track gain : -7.87 dB
Peak : 0.951324
CRC32 hash (test run) : A0A49B8C
CRC32 hash : A0A49B8C
CRC32 hash (skip zero) : B3839614
AccurateRip v1 signature : 873889F9
AccurateRip v2 signature : EEBA9510
->Track not present in AccurateRip database.
Statistics
Read error : 0
Jitter error (maybe fixed) : 0
Retry sector count : 0
Damaged sector count : 0
Track 06
Filename : /Users/anch/Music/Grabbed/Joe McPhee, Paal Nilssen-Love/01 - 2007 - Molde/06 - Molde Part 6.flac
Track gain : -5.44 dB
Peak : 0.951324
CRC32 hash (test run) : 8E8C45AC
CRC32 hash : 8E8C45AC
CRC32 hash (skip zero) : 80D33489
AccurateRip v1 signature : BD461BAC
AccurateRip v2 signature : F250AD96
->Track not present in AccurateRip database.
Statistics
Read error : 0
Jitter error (maybe fixed) : 0
Retry sector count : 0
Damaged sector count : 0
Track 07
Filename : /Users/anch/Music/Grabbed/Joe McPhee, Paal Nilssen-Love/01 - 2007 - Molde/07 - Molde Part 7.flac
Track gain : -2.54 dB
Peak : 0.951324
CRC32 hash (test run) : 6CD82BF5
CRC32 hash : 6CD82BF5
CRC32 hash (skip zero) : E31E2E34
AccurateRip v1 signature : 069D13C5
AccurateRip v2 signature : 256308FC
->Track not present in AccurateRip database.
Statistics
Read error : 0
Jitter error (maybe fixed) : 0
Retry sector count : 0
Damaged sector count : 0
Track 08
Filename : /Users/anch/Music/Grabbed/Joe McPhee, Paal Nilssen-Love/01 - 2007 - Molde/08 - Molde Part 8.flac
Track gain : -7.32 dB
Peak : 0.951324
CRC32 hash (test run) : 20E086D3
CRC32 hash : 20E086D3
CRC32 hash (skip zero) : ED1886C4
AccurateRip v1 signature : 10A57B4F
AccurateRip v2 signature : 6405524D
->Track not present in AccurateRip database.
Statistics
Read error : 0
Jitter error (maybe fixed) : 0
Retry sector count : 0
Damaged sector count : 0
No errors occurred
End of status report
-----BEGIN XLD SIGNATURE-----
nVzjvS3.lhRmTPxCPspRKFPDqy.dw5QCQMMiHpmo9NLc6db4tPzRaX6yiwIkTziK5ycm1yoKCA2GC_6ZGvTVrVdSbYPwtmDkuNk3JfC
-----END XLD SIGNATURE-----
 
.cue
TITLE "Candy: Molde"
PERFORMER "Joe McPhee, Paal Nilssen-Love"
REM GENRE "Free Jazz"
REM DATE "2007"
REM DISCNUMBER 1
REM TOTALDISCS 7
REM DISCID 740D7B08
REM REPLAYGAIN_ALBUM_GAIN -7.85 dB
REM REPLAYGAIN_ALBUM_PEAK 0.951324
FILE "01 - Molde Part 1.flac" WAVE
TRACK 01 AUDIO
TITLE "Molde Part 1"
PERFORMER "Joe McPhee, Paal Nilssen-Love"
FLAGS DCP
REM COMMENT "Recorded live in concert on July 19th 2007 at Reknes, Molde Jazzfestival, Norway. Photo by Lars Eivind Bones. Thanks to Jan Ole Otnæs."
REM REPLAYGAIN_TRACK_GAIN -8.39 dB
REM REPLAYGAIN_TRACK_PEAK 0.951324
INDEX 01 00:00:00
FILE "02 - Molde Part 2.flac" WAVE
TRACK 02 AUDIO
TITLE "Molde Part 2"
PERFORMER "Joe McPhee, Paal Nilssen-Love"
FLAGS DCP
REM COMMENT "Recorded live in concert on July 19th 2007 at Reknes, Molde Jazzfestival, Norway. Photo by Lars Eivind Bones. Thanks to Jan Ole Otnæs."
REM REPLAYGAIN_TRACK_GAIN -7.90 dB
REM REPLAYGAIN_TRACK_PEAK 0.951324
INDEX 01 00:00:00
FILE "03 - Molde Part 3.flac" WAVE
TRACK 03 AUDIO
TITLE "Molde Part 3"
PERFORMER "Joe McPhee, Paal Nilssen-Love"
FLAGS DCP
REM COMMENT "Recorded live in concert on July 19th 2007 at Reknes, Molde Jazzfestival, Norway. Photo by Lars Eivind Bones. Thanks to Jan Ole Otnæs."
REM REPLAYGAIN_TRACK_GAIN -6.54 dB
REM REPLAYGAIN_TRACK_PEAK 0.951324
INDEX 01 00:00:00
FILE "04 - Molde Part 4.flac" WAVE
TRACK 04 AUDIO
TITLE "Molde Part 4"
PERFORMER "Joe McPhee, Paal Nilssen-Love"
FLAGS DCP
REM COMMENT "Recorded live in concert on July 19th 2007 at Reknes, Molde Jazzfestival, Norway. Photo by Lars Eivind Bones. Thanks to Jan Ole Otnæs."
REM REPLAYGAIN_TRACK_GAIN -8.31 dB
REM REPLAYGAIN_TRACK_PEAK 0.951324
INDEX 01 00:00:00
FILE "05 - Molde Part 5.flac" WAVE
TRACK 05 AUDIO
TITLE "Molde Part 5"
PERFORMER "Joe McPhee, Paal Nilssen-Love"
FLAGS DCP
REM COMMENT "Recorded live in concert on July 19th 2007 at Reknes, Molde Jazzfestival, Norway. Photo by Lars Eivind Bones. Thanks to Jan Ole Otnæs."
REM REPLAYGAIN_TRACK_GAIN -7.87 dB
REM REPLAYGAIN_TRACK_PEAK 0.951324
INDEX 01 00:00:00
FILE "06 - Molde Part 6.flac" WAVE
TRACK 06 AUDIO
TITLE "Molde Part 6"
PERFORMER "Joe McPhee, Paal Nilssen-Love"
FLAGS DCP
REM COMMENT "Recorded live in concert on July 19th 2007 at Reknes, Molde Jazzfestival, Norway. Photo by Lars Eivind Bones. Thanks to Jan Ole Otnæs."
REM REPLAYGAIN_TRACK_GAIN -5.44 dB
REM REPLAYGAIN_TRACK_PEAK 0.951324
INDEX 01 00:00:00
FILE "07 - Molde Part 7.flac" WAVE
TRACK 07 AUDIO
TITLE "Molde Part 7"
PERFORMER "Joe McPhee, Paal Nilssen-Love"
FLAGS DCP
REM COMMENT "Recorded live in concert on July 19th 2007 at Reknes, Molde Jazzfestival, Norway. Photo by Lars Eivind Bones. Thanks to Jan Ole Otnæs."
REM REPLAYGAIN_TRACK_GAIN -2.54 dB
REM REPLAYGAIN_TRACK_PEAK 0.951324
INDEX 01 00:00:00
FILE "08 - Molde Part 8.flac" WAVE
TRACK 08 AUDIO
TITLE "Molde Part 8"
PERFORMER "Joe McPhee, Paal Nilssen-Love"
FLAGS DCP
REM COMMENT "Recorded live in concert on July 19th 2007 at Reknes, Molde Jazzfestival, Norway. Photo by Lars Eivind Bones. Thanks to Jan Ole Otnæs."
REM REPLAYGAIN_TRACK_GAIN -7.32 dB
REM REPLAYGAIN_TRACK_PEAK 0.951324
INDEX 01 00:00:00
 
02 - 2007-10-25 - Tomorrow Came Today


02 - 2007-10-25 - Tomorrow Came Today

2.1 Tomorrow Came Today 7:07
2.2 Go 4:24
2.3 Ibsen's Ghost 4:28
2.4 Build And Break 6:15
2.5 Acts Of Time 5:22
2.6 Sun And Steel 7:17
2.7 Body Sound 4:33
2.8 Crossing Messages 5:35

 
.log
X Lossless Decoder version 20151214 (149.1)
XLD extraction logfile from 2016-01-14 17:14:36 +0300
Joe McPhee, Paal Nilssen-Love / Candy: Tomorrow Came Today
Used drive : HL-DT-ST DVDRW GX30N (revision RP09)
Media type : Pressed CD
Ripper mode : XLD Secure Ripper
Disable audio cache : OK for the drive with a cache less than 1375KiB
Make use of C2 pointers : NO
Read offset correction : 6
Max retry count : 100
Gap status : Analyzed, Appended (except HTOA)
TOC of the extracted CD
Track | Start | Length | Start sector | End sector
---------------------------------------------------------
1 | 00:00:00 | 07:07:30 | 0 | 32054
2 | 07:07:30 | 04:24:36 | 32055 | 51890
3 | 11:31:66 | 04:28:48 | 51891 | 72038
4 | 16:00:39 | 06:15:17 | 72039 | 100180
5 | 22:15:56 | 05:22:30 | 100181 | 124360
6 | 27:38:11 | 07:17:68 | 124361 | 157203
7 | 34:56:04 | 04:33:12 | 157204 | 177690
8 | 39:29:16 | 05:35:61 | 177691 | 202876
AccurateRip Summary
Disc not found in AccurateRip DB.
All Tracks
Album gain : -4.55 dB
Peak : 1.000000
Statistics
Read error : 0
Jitter error (maybe fixed) : 0
Retry sector count : 0
Damaged sector count : 0
Track 01
Filename : /Users/anch/Music/Grabbed/Joe McPhee, Paal Nilssen-Love/02 - 2015 - Candy - Tomorrow Came Today/01 - Tomorrow Came Today.flac
Pre-gap length : 00:02:00
Track gain : -2.13 dB
Peak : 0.915833
CRC32 hash (test run) : 3D86585F
CRC32 hash : 3D86585F
CRC32 hash (skip zero) : 41389FA3
AccurateRip v1 signature : B44771F4
AccurateRip v2 signature : 44AED2ED
->Track not present in AccurateRip database.
Statistics
Read error : 0
Jitter error (maybe fixed) : 0
Retry sector count : 0
Damaged sector count : 0
Track 02
Filename : /Users/anch/Music/Grabbed/Joe McPhee, Paal Nilssen-Love/02 - 2015 - Candy - Tomorrow Came Today/02 - Go.flac
Track gain : -4.41 dB
Peak : 0.860382
CRC32 hash (test run) : FAE89BEE
CRC32 hash : FAE89BEE
CRC32 hash (skip zero) : 69E4CB88
AccurateRip v1 signature : 973EFF3E
AccurateRip v2 signature : 5E346DE0
->Track not present in AccurateRip database.
Statistics
Read error : 0
Jitter error (maybe fixed) : 0
Retry sector count : 0
Damaged sector count : 0
Track 03
Filename : /Users/anch/Music/Grabbed/Joe McPhee, Paal Nilssen-Love/02 - 2015 - Candy - Tomorrow Came Today/03 - Ibsen's Ghost.flac
Track gain : 0.17 dB
Peak : 0.918518
CRC32 hash (test run) : ED643FE8
CRC32 hash : ED643FE8
CRC32 hash (skip zero) : 9E799301
AccurateRip v1 signature : DCAAC8D1
AccurateRip v2 signature : D691A084
->Track not present in AccurateRip database.
Statistics
Read error : 0
Jitter error (maybe fixed) : 0
Retry sector count : 0
Damaged sector count : 0
Track 04
Filename : /Users/anch/Music/Grabbed/Joe McPhee, Paal Nilssen-Love/02 - 2015 - Candy - Tomorrow Came Today/04 - Build And Break.flac
Track gain : -5.83 dB
Peak : 0.921661
CRC32 hash (test run) : E4C24909
CRC32 hash : E4C24909
CRC32 hash (skip zero) : CF2EE08A
AccurateRip v1 signature : 13763258
AccurateRip v2 signature : FF356466
->Track not present in AccurateRip database.
Statistics
Read error : 0
Jitter error (maybe fixed) : 0
Retry sector count : 0
Damaged sector count : 0
Track 05
Filename : /Users/anch/Music/Grabbed/Joe McPhee, Paal Nilssen-Love/02 - 2015 - Candy - Tomorrow Came Today/05 - Acts Of Time.flac
Track gain : -4.28 dB
Peak : 0.919739
CRC32 hash (test run) : F642A197
CRC32 hash : F642A197
CRC32 hash (skip zero) : 86816D06
AccurateRip v1 signature : 1A917E54
AccurateRip v2 signature : D83DE4A9
->Track not present in AccurateRip database.
Statistics
Read error : 0
Jitter error (maybe fixed) : 0
Retry sector count : 0
Damaged sector count : 0
Track 06
Filename : /Users/anch/Music/Grabbed/Joe McPhee, Paal Nilssen-Love/02 - 2015 - Candy - Tomorrow Came Today/06 - Sun And Steel.flac
Track gain : -4.27 dB
Peak : 0.922821
CRC32 hash (test run) : 7CB2C4DE
CRC32 hash : 7CB2C4DE
CRC32 hash (skip zero) : BF48683D
AccurateRip v1 signature : 18CF1194
AccurateRip v2 signature : 6D5BB4AE
->Track not present in AccurateRip database.
Statistics
Read error : 0
Jitter error (maybe fixed) : 0
Retry sector count : 0
Damaged sector count : 0
Track 07
Filename : /Users/anch/Music/Grabbed/Joe McPhee, Paal Nilssen-Love/02 - 2015 - Candy - Tomorrow Came Today/07 - Body Sound.flac
Track gain : -5.38 dB
Peak : 1.000000
CRC32 hash (test run) : BCE5BF41
CRC32 hash : BCE5BF41
CRC32 hash (skip zero) : AD64BEB9
AccurateRip v1 signature : 5DEDAC0C
AccurateRip v2 signature : A6FAD7A9
->Track not present in AccurateRip database.
Statistics
Read error : 0
Jitter error (maybe fixed) : 0
Retry sector count : 0
Damaged sector count : 0
Track 08
Filename : /Users/anch/Music/Grabbed/Joe McPhee, Paal Nilssen-Love/02 - 2015 - Candy - Tomorrow Came Today/08 - Crossing Messages.flac
Track gain : -4.61 dB
Peak : 0.920074
CRC32 hash (test run) : 85DAAFAB
CRC32 hash : 85DAAFAB
CRC32 hash (skip zero) : 4B10FD20
AccurateRip v1 signature : DDE1B28A
AccurateRip v2 signature : 8D697141
->Track not present in AccurateRip database.
Statistics
Read error : 0
Jitter error (maybe fixed) : 0
Retry sector count : 0
Damaged sector count : 0
No errors occurred
End of status report
-----BEGIN XLD SIGNATURE-----
u9pJCCAP7zwlf36tQlX1afhLwXFKNiI_EBooDCUhS1cRtSrL.WA2drGEVy7srsR0V9jYMwA4lB8x84JB9j64fxOPsF8TLOUCZDnsn.u
-----END XLD SIGNATURE-----
 
.cue
TITLE "Candy: Tomorrow Came Today"
PERFORMER "Joe McPhee, Paal Nilssen-Love"
REM GENRE "Free Jazz"
REM DATE "2007"
REM DISCNUMBER 2
REM TOTALDISCS 7
REM DISCID 6F0A9108
REM REPLAYGAIN_ALBUM_GAIN -4.55 dB
REM REPLAYGAIN_ALBUM_PEAK 1.000000
FILE "01 - Tomorrow Came Today.flac" WAVE
TRACK 01 AUDIO
TITLE "Tomorrow Came Today"
PERFORMER "Joe McPhee, Paal Nilssen-Love"
FLAGS DCP
REM COMMENT "Recorded August 15th and mixed October 25th 2007 at Grand Sport Studio, Oslo. Previously released in 2008 on Smalltown Superjazzz as STSJ148CD. Photo by Kim Hiorthøy. Thanks to Joakim Haugland. "
REM REPLAYGAIN_TRACK_GAIN -2.13 dB
REM REPLAYGAIN_TRACK_PEAK 0.915833
INDEX 01 00:00:00
FILE "02 - Go.flac" WAVE
TRACK 02 AUDIO
TITLE "Go"
PERFORMER "Joe McPhee, Paal Nilssen-Love"
FLAGS DCP
REM COMMENT "Recorded August 15th and mixed October 25th 2007 at Grand Sport Studio, Oslo. Previously released in 2008 on Smalltown Superjazzz as STSJ148CD. Photo by Kim Hiorthøy. Thanks to Joakim Haugland. "
REM REPLAYGAIN_TRACK_GAIN -4.41 dB
REM REPLAYGAIN_TRACK_PEAK 0.860382
INDEX 01 00:00:00
FILE "03 - Ibsen's Ghost.flac" WAVE
TRACK 03 AUDIO
TITLE "Ibsen's Ghost"
PERFORMER "Joe McPhee, Paal Nilssen-Love"
FLAGS DCP
REM COMMENT "Recorded August 15th and mixed October 25th 2007 at Grand Sport Studio, Oslo. Previously released in 2008 on Smalltown Superjazzz as STSJ148CD. Photo by Kim Hiorthøy. Thanks to Joakim Haugland. "
REM REPLAYGAIN_TRACK_GAIN 0.17 dB
REM REPLAYGAIN_TRACK_PEAK 0.918518
INDEX 01 00:00:00
FILE "04 - Build And Break.flac" WAVE
TRACK 04 AUDIO
TITLE "Build And Break"
PERFORMER "Joe McPhee, Paal Nilssen-Love"
FLAGS DCP
REM COMMENT "Recorded August 15th and mixed October 25th 2007 at Grand Sport Studio, Oslo. Previously released in 2008 on Smalltown Superjazzz as STSJ148CD. Photo by Kim Hiorthøy. Thanks to Joakim Haugland. "
REM REPLAYGAIN_TRACK_GAIN -5.83 dB
REM REPLAYGAIN_TRACK_PEAK 0.921661
INDEX 01 00:00:00
FILE "05 - Acts Of Time.flac" WAVE
TRACK 05 AUDIO
TITLE "Acts Of Time"
PERFORMER "Joe McPhee, Paal Nilssen-Love"
FLAGS DCP
REM COMMENT "Recorded August 15th and mixed October 25th 2007 at Grand Sport Studio, Oslo. Previously released in 2008 on Smalltown Superjazzz as STSJ148CD. Photo by Kim Hiorthøy. Thanks to Joakim Haugland. "
REM REPLAYGAIN_TRACK_GAIN -4.28 dB
REM REPLAYGAIN_TRACK_PEAK 0.919739
INDEX 01 00:00:00
FILE "06 - Sun And Steel.flac" WAVE
TRACK 06 AUDIO
TITLE "Sun And Steel"
PERFORMER "Joe McPhee, Paal Nilssen-Love"
FLAGS DCP
REM COMMENT "Recorded August 15th and mixed October 25th 2007 at Grand Sport Studio, Oslo. Previously released in 2008 on Smalltown Superjazzz as STSJ148CD. Photo by Kim Hiorthøy. Thanks to Joakim Haugland. "
REM REPLAYGAIN_TRACK_GAIN -4.27 dB
REM REPLAYGAIN_TRACK_PEAK 0.922821
INDEX 01 00:00:00
FILE "07 - Body Sound.flac" WAVE
TRACK 07 AUDIO
TITLE "Body Sound"
PERFORMER "Joe McPhee, Paal Nilssen-Love"
FLAGS DCP
REM COMMENT "Recorded August 15th and mixed October 25th 2007 at Grand Sport Studio, Oslo. Previously released in 2008 on Smalltown Superjazzz as STSJ148CD. Photo by Kim Hiorthøy. Thanks to Joakim Haugland. "
REM REPLAYGAIN_TRACK_GAIN -5.38 dB
REM REPLAYGAIN_TRACK_PEAK 1.000000
INDEX 01 00:00:00
FILE "08 - Crossing Messages.flac" WAVE
TRACK 08 AUDIO
TITLE "Crossing Messages"
PERFORMER "Joe McPhee, Paal Nilssen-Love"
FLAGS DCP
REM COMMENT "Recorded August 15th and mixed October 25th 2007 at Grand Sport Studio, Oslo. Previously released in 2008 on Smalltown Superjazzz as STSJ148CD. Photo by Kim Hiorthøy. Thanks to Joakim Haugland. "
REM REPLAYGAIN_TRACK_GAIN -4.61 dB
REM REPLAYGAIN_TRACK_PEAK 0.920074
INDEX 01 00:00:00
 
03 - 2008-07-03 - Red Sky Revisited


03 - 2008-07-03 - Red Sky Revisited

3.1 Red Sky (Red Sky At Night, Sailor's Delight, Red Sky In The Morning, Sailor's Warning) 11:21
3.2 Till (Remembering Emmet Till) 5:38
3.3 Peach Melba 4:58
3.4 Iron Man Returns 5:10
3.5 Come Sunday (Duke Ellington) 5:56

 
.log
X Lossless Decoder version 20151214 (149.1)
XLD extraction logfile from 2016-01-04 22:15:07 +0300
Joe McPhee, Paal Nilssen-Love / Candy: Red Sky Revisited
Used drive : HL-DT-ST DVDRW GX30N (revision RP09)
Media type : Pressed CD
Ripper mode : XLD Secure Ripper
Disable audio cache : OK for the drive with a cache less than 1375KiB
Make use of C2 pointers : NO
Read offset correction : 6
Max retry count : 100
Gap status : Analyzed, Appended (except HTOA)
TOC of the extracted CD
Track | Start | Length | Start sector | End sector
---------------------------------------------------------
1 | 00:00:00 | 11:21:47 | 0 | 51121
2 | 11:21:47 | 05:38:12 | 51122 | 76483
3 | 16:59:59 | 04:58:33 | 76484 | 98866
4 | 21:58:17 | 05:12:16 | 98867 | 122282
5 | 27:10:33 | 05:56:24 | 122283 | 149006
AccurateRip Summary
Disc not found in AccurateRip DB.
All Tracks
Album gain : -4.19 dB
Peak : 0.945190
Statistics
Read error : 0
Jitter error (maybe fixed) : 0
Retry sector count : 0
Damaged sector count : 0
Track 01
Filename : /Users/anch/Music/Grabbed/Joe McPhee, Paal Nilssen-Love/03 - 2018 - Candy - Red Sky Revisited/01 - Red Sky (Red Sky At Night, Sailor's Delight, Red Sky In The Morning, Sailor's Warning).flac
Pre-gap length : 00:02:00
Track gain : -4.98 dB
Peak : 0.945190
CRC32 hash (test run) : 8F6CC95D
CRC32 hash : 8F6CC95D
CRC32 hash (skip zero) : A1ED11CF
AccurateRip v1 signature : 6BCACFC4
AccurateRip v2 signature : 0D97AD9D
->Track not present in AccurateRip database.
Statistics
Read error : 0
Jitter error (maybe fixed) : 0
Retry sector count : 0
Damaged sector count : 0
Track 02
Filename : /Users/anch/Music/Grabbed/Joe McPhee, Paal Nilssen-Love/03 - 2018 - Candy - Red Sky Revisited/02 - Till (Remembering Emmet Till).flac
Track gain : -0.49 dB
Peak : 0.945190
CRC32 hash (test run) : 669527C3
CRC32 hash : 669527C3
CRC32 hash (skip zero) : BE25BE90
AccurateRip v1 signature : 3A9FC807
AccurateRip v2 signature : B909CD15
->Track not present in AccurateRip database.
Statistics
Read error : 0
Jitter error (maybe fixed) : 0
Retry sector count : 0
Damaged sector count : 0
Track 03
Filename : /Users/anch/Music/Grabbed/Joe McPhee, Paal Nilssen-Love/03 - 2018 - Candy - Red Sky Revisited/03 - Peach Melba.flac
Track gain : -4.33 dB
Peak : 0.945190
CRC32 hash (test run) : 571CCB2C
CRC32 hash : 571CCB2C
CRC32 hash (skip zero) : B58259F1
AccurateRip v1 signature : EDD1F3F1
AccurateRip v2 signature : 3307889D
->Track not present in AccurateRip database.
Statistics
Read error : 0
Jitter error (maybe fixed) : 0
Retry sector count : 0
Damaged sector count : 0
Track 04
Filename : /Users/anch/Music/Grabbed/Joe McPhee, Paal Nilssen-Love/03 - 2018 - Candy - Red Sky Revisited/04 - Iron Man Returns.flac
Track gain : -5.24 dB
Peak : 0.945190
CRC32 hash (test run) : 2EC1AB7F
CRC32 hash : 2EC1AB7F
CRC32 hash (skip zero) : 9F13DF55
AccurateRip v1 signature : 10BD25BF
AccurateRip v2 signature : 61330CA7
->Track not present in AccurateRip database.
Statistics
Read error : 0
Jitter error (maybe fixed) : 0
Retry sector count : 0
Damaged sector count : 0
Track 05
Filename : /Users/anch/Music/Grabbed/Joe McPhee, Paal Nilssen-Love/03 - 2018 - Candy - Red Sky Revisited/05 - Come Sunday (Duke Ellington).flac
Pre-gap length : 00:02:00
Track gain : 1.87 dB
Peak : 0.943176
CRC32 hash (test run) : 1A2F34EB
CRC32 hash : 1A2F34EB
CRC32 hash (skip zero) : 2E0C7452
AccurateRip v1 signature : E95D417D
AccurateRip v2 signature : 23A26472
->Track not present in AccurateRip database.
Statistics
Read error : 0
Jitter error (maybe fixed) : 0
Retry sector count : 0
Damaged sector count : 0
No errors occurred
End of status report
-----BEGIN XLD SIGNATURE-----
SvWQPdUWr9ltbhb1NPIxNaFCFTi5C4PvrgdvbafMzLRN5d_1oz65xKN39ZIDQgdwFpwxLoio3GX5PSwwzaoXLO.1MlxIx5sis7Khjgy
-----END XLD SIGNATURE-----
 
.cue
TITLE "Candy: Red Sky Revisited"
PERFORMER "Joe McPhee, Paal Nilssen-Love"
REM GENRE "Free Jazz"
REM DATE "2008"
REM DISCNUMBER 3
REM TOTALDISCS 7
REM DISCID 2907C205
REM REPLAYGAIN_ALBUM_GAIN -4.19 dB
REM REPLAYGAIN_ALBUM_PEAK 0.945190
FILE "01 - Red Sky.flac" WAVE
TRACK 01 AUDIO
TITLE "Red Sky (Red Sky At Night, Sailor's Delight, Red Sky In The Morning, Sailor's Warning)"
PERFORMER "Joe McPhee, Paal Nilssen-Love"
FLAGS DCP
REM COMMENT "Recorded live in concert on July 3rd 2008 at Energimølla, Kongsberg Jazzfestival, Norway. Previously released in 2013 on PNL Records as PNL016. Remixed and mastered in 2015. Photo by Lars Jönsson. Thanks to Tor Dalaker Lund and Pål Fidjestøl."
REM REPLAYGAIN_TRACK_GAIN -4.98 dB
REM REPLAYGAIN_TRACK_PEAK 0.945190
INDEX 01 00:00:00
FILE "02 - Till (Remembering Emmet Till).flac" WAVE
TRACK 02 AUDIO
TITLE "Till (Remembering Emmet Till)"
PERFORMER "Joe McPhee, Paal Nilssen-Love"
FLAGS DCP
REM COMMENT "Recorded live in concert on July 3rd 2008 at Energimølla, Kongsberg Jazzfestival, Norway. Previously released in 2013 on PNL Records as PNL016. Remixed and mastered in 2015. Photo by Lars Jönsson. Thanks to Tor Dalaker Lund and Pål Fidjestøl."
REM REPLAYGAIN_TRACK_GAIN -0.49 dB
REM REPLAYGAIN_TRACK_PEAK 0.945190
INDEX 01 00:00:00
FILE "03 - Peach Melba.flac" WAVE
TRACK 03 AUDIO
TITLE "Peach Melba"
PERFORMER "Joe McPhee, Paal Nilssen-Love"
FLAGS DCP
REM COMMENT "Recorded live in concert on July 3rd 2008 at Energimølla, Kongsberg Jazzfestival, Norway. Previously released in 2013 on PNL Records as PNL016. Remixed and mastered in 2015. Photo by Lars Jönsson. Thanks to Tor Dalaker Lund and Pål Fidjestøl."
REM REPLAYGAIN_TRACK_GAIN -4.33 dB
REM REPLAYGAIN_TRACK_PEAK 0.945190
INDEX 01 00:00:00
FILE "04 - Iron Man Returns.flac" WAVE
TRACK 04 AUDIO
TITLE "Iron Man Returns"
PERFORMER "Joe McPhee, Paal Nilssen-Love"
FLAGS DCP
REM COMMENT "Recorded live in concert on July 3rd 2008 at Energimølla, Kongsberg Jazzfestival, Norway. Previously released in 2013 on PNL Records as PNL016. Remixed and mastered in 2015. Photo by Lars Jönsson. Thanks to Tor Dalaker Lund and Pål Fidjestøl."
REM REPLAYGAIN_TRACK_GAIN -5.24 dB
REM REPLAYGAIN_TRACK_PEAK 0.945190
INDEX 01 00:00:00
TRACK 05 AUDIO
TITLE "Come Sunday (Duke Ellington)"
PERFORMER "Joe McPhee, Paal Nilssen-Love"
FLAGS DCP
REM COMMENT "Recorded live in concert on July 3rd 2008 at Energimølla, Kongsberg Jazzfestival, Norway. Previously released in 2013 on PNL Records as PNL016. Remixed and mastered in 2015. Photo by Lars Jönsson. Thanks to Tor Dalaker Lund and Pål Fidjestøl."
REM REPLAYGAIN_TRACK_GAIN 1.87 dB
REM REPLAYGAIN_TRACK_PEAK 0.943176
INDEX 00 05:10:16
FILE "05 - Come Sunday (Duke Ellington).flac" WAVE
INDEX 01 00:00:00
 
04 - 2012-07-08 - Sugar Maple


04 - 2012-07-08 - Sugar Maple

4.1 Sugar Maple Part 1 19:39
4.2 Sugar Maple Part 2 15:55
4.3 Sugar Maple Part 3 7:14

 
.log
X Lossless Decoder version 20151214 (149.1)
XLD extraction logfile from 2016-01-04 15:48:37 +0300
Joe McPhee, Paal Nilssen-Love / Candy: Sugar Maple
Used drive : HL-DT-ST DVDRW GX30N (revision RP09)
Media type : Pressed CD
Ripper mode : XLD Secure Ripper
Disable audio cache : OK for the drive with a cache less than 1375KiB
Make use of C2 pointers : NO
Read offset correction : 6
Max retry count : 100
Gap status : Analyzed, Appended (except HTOA)
TOC of the extracted CD
Track | Start | Length | Start sector | End sector
---------------------------------------------------------
1 | 00:00:00 | 19:39:14 | 0 | 88438
2 | 19:39:14 | 15:55:13 | 88439 | 160076
3 | 35:34:27 | 07:14:44 | 160077 | 192670
AccurateRip Summary
Disc not found in AccurateRip DB.
All Tracks
Album gain : -4.15 dB
Peak : 0.879303
Statistics
Read error : 0
Jitter error (maybe fixed) : 0
Retry sector count : 0
Damaged sector count : 0
Track 01
Filename : /Users/anch/Music/Grabbed/Joe McPhee, Paal Nilssen-Love/F 2012 - Candy - Sugar Maple/01 - Sugar Maple Part 1.flac
Pre-gap length : 00:02:00
Track gain : -4.40 dB
Peak : 0.879303
CRC32 hash (test run) : AD9F0CAB
CRC32 hash : AD9F0CAB
CRC32 hash (skip zero) : 7AD9DAF9
AccurateRip v1 signature : 2BC8BE3E
AccurateRip v2 signature : 2D347BF7
->Track not present in AccurateRip database.
Statistics
Read error : 0
Jitter error (maybe fixed) : 0
Retry sector count : 0
Damaged sector count : 0
Track 02
Filename : /Users/anch/Music/Grabbed/Joe McPhee, Paal Nilssen-Love/F 2012 - Candy - Sugar Maple/02 - Sugar Maple Part 2.flac
Track gain : -3.60 dB
Peak : 0.879303
CRC32 hash (test run) : 50C0E335
CRC32 hash : 50C0E335
CRC32 hash (skip zero) : 80FFC9BE
AccurateRip v1 signature : DCE32999
AccurateRip v2 signature : 4FECD964
->Track not present in AccurateRip database.
Statistics
Read error : 0
Jitter error (maybe fixed) : 0
Retry sector count : 0
Damaged sector count : 0
Track 03
Filename : /Users/anch/Music/Grabbed/Joe McPhee, Paal Nilssen-Love/F 2012 - Candy - Sugar Maple/03 - Sugar Maple Part 3.flac
Track gain : -4.45 dB
Peak : 0.879303
CRC32 hash (test run) : 3127BEB1
CRC32 hash : 3127BEB1
CRC32 hash (skip zero) : 9EB9B6DC
AccurateRip v1 signature : C93BD9E5
AccurateRip v2 signature : 4ED9C469
->Track not present in AccurateRip database.
Statistics
Read error : 0
Jitter error (maybe fixed) : 0
Retry sector count : 0
Damaged sector count : 0
No errors occurred
End of status report
-----BEGIN XLD SIGNATURE-----
fZ9SDJk6yKMN96LFMX63Cba.uhmN8MaJxAz8.4.2McugopOKA2mawdGoI8LU2RWAbSv_O8HzsuJGwhgkAuagLFf5Yr0S4iuonda4qYC
-----END XLD SIGNATURE-----
 
.cue
TITLE "Candy: Sugar Maple"
PERFORMER "Joe McPhee, Paal Nilssen-Love"
REM GENRE "Jazz"
REM DATE "2012"
REM DISCNUMBER 4
REM TOTALDISCS 7
REM DISCID 190A0803
REM REPLAYGAIN_ALBUM_GAIN -4.15 dB
REM REPLAYGAIN_ALBUM_PEAK 0.879303
FILE "01 - Sugar Maple Part 1.flac" WAVE
TRACK 01 AUDIO
TITLE "Sugar Maple Part 1"
PERFORMER "Joe McPhee, Paal Nilssen-Love"
FLAGS DCP
REM COMMENT "Recorded live in concert on 2012.007.08 at Sugar Maple, Okkafest, Milwaukee, USA. Photo by Pedro Moreno. Thanks to Adrienne Pierluissi, Bruno Johnson and Ken Vandermark. "
REM REPLAYGAIN_TRACK_GAIN -4.40 dB
REM REPLAYGAIN_TRACK_PEAK 0.879303
INDEX 01 00:00:00
FILE "02 - Sugar Maple Part 2.flac" WAVE
TRACK 02 AUDIO
TITLE "Sugar Maple Part 2"
PERFORMER "Joe McPhee, Paal Nilssen-Love"
FLAGS DCP
REM COMMENT "Recorded live in concert on 2012.007.08 at Sugar Maple, Okkafest, Milwaukee, USA. Photo by Pedro Moreno. Thanks to Adrienne Pierluissi, Bruno Johnson and Ken Vandermark. "
REM REPLAYGAIN_TRACK_GAIN -3.60 dB
REM REPLAYGAIN_TRACK_PEAK 0.879303
INDEX 01 00:00:00
FILE "03 - Sugar Maple Part 3.flac" WAVE
TRACK 03 AUDIO
TITLE "Sugar Maple Part 3"
PERFORMER "Joe McPhee, Paal Nilssen-Love"
FLAGS DCP
REM COMMENT "Recorded live in concert on 2012.007.08 at Sugar Maple, Okkafest, Milwaukee, USA. Photo by Pedro Moreno. Thanks to Adrienne Pierluissi, Bruno Johnson and Ken Vandermark. "
REM REPLAYGAIN_TRACK_GAIN -4.45 dB
REM REPLAYGAIN_TRACK_PEAK 0.879303
INDEX 01 00:00:00
 
05 - 2012-08-30 - Elastic


05 - 2012-08-30 - Elastic

5.1 Elastic Part 1 22:52
5.2 Elastic Part 2 10:00
5.3 Elastic Part 3 7:21

 
.log
X Lossless Decoder version 20151214 (149.1)
XLD extraction logfile from 2016-01-04 18:43:18 +0300
Joe McPhee, Paal Nilssen-Love / Candy: Elastic
Used drive : HL-DT-ST DVDRW GX30N (revision RP09)
Media type : Pressed CD
Ripper mode : XLD Secure Ripper
Disable audio cache : OK for the drive with a cache less than 1375KiB
Make use of C2 pointers : NO
Read offset correction : 6
Max retry count : 100
Gap status : Analyzed, Appended (except HTOA)
TOC of the extracted CD
Track | Start | Length | Start sector | End sector
---------------------------------------------------------
1 | 00:00:00 | 22:52:12 | 0 | 102911
2 | 22:52:12 | 10:00:53 | 102912 | 147964
3 | 32:52:65 | 07:21:37 | 147965 | 181076
AccurateRip Summary
Disc not found in AccurateRip DB.
All Tracks
Album gain : -2.04 dB
Peak : 0.898743
Statistics
Read error : 0
Jitter error (maybe fixed) : 0
Retry sector count : 0
Damaged sector count : 0
Track 01
Filename : /Users/anch/Music/Grabbed/Joe McPhee, Paal Nilssen-Love/05 - 2012 - Candy - Elastic/01 - Elastic Part 1.flac
Pre-gap length : 00:02:00
Track gain : -2.59 dB
Peak : 0.898743
CRC32 hash (test run) : 03FA3ADB
CRC32 hash : 03FA3ADB
CRC32 hash (skip zero) : 9459C50E
AccurateRip v1 signature : BA3BA022
AccurateRip v2 signature : 8620389F
->Track not present in AccurateRip database.
Statistics
Read error : 0
Jitter error (maybe fixed) : 0
Retry sector count : 0
Damaged sector count : 0
Track 02
Filename : /Users/anch/Music/Grabbed/Joe McPhee, Paal Nilssen-Love/05 - 2012 - Candy - Elastic/02 - Elastic Part 2.flac
Track gain : -0.69 dB
Peak : 0.898743
CRC32 hash (test run) : 6261FD46
CRC32 hash : 6261FD46
CRC32 hash (skip zero) : 789FA2A9
AccurateRip v1 signature : A7D0550A
AccurateRip v2 signature : 72AA615C
->Track not present in AccurateRip database.
Statistics
Read error : 0
Jitter error (maybe fixed) : 0
Retry sector count : 0
Damaged sector count : 0
Track 03
Filename : /Users/anch/Music/Grabbed/Joe McPhee, Paal Nilssen-Love/05 - 2012 - Candy - Elastic/03 - Elastic Part 3.flac
Track gain : -0.63 dB
Peak : 0.898743
CRC32 hash (test run) : EEB45718
CRC32 hash : EEB45718
CRC32 hash (skip zero) : C8BB176E
AccurateRip v1 signature : FF5C2535
AccurateRip v2 signature : 6A570EF7
->Track not present in AccurateRip database.
Statistics
Read error : 0
Jitter error (maybe fixed) : 0
Retry sector count : 0
Damaged sector count : 0
No errors occurred
End of status report
-----BEGIN XLD SIGNATURE-----
ryus8thqfBt87ZZYtAkAlsuw.fI_gKt4jVQn21zl5W7_YNHa4uXFfprhCyT_6jZmPw2KcwkzB2BS4hJfEYX9qj8giaAo_gxtrQngceK
-----END XLD SIGNATURE-----
 
.cue
TITLE "Candy: Elastic"
PERFORMER "Joe McPhee, Paal Nilssen-Love"
REM GENRE "Free Jazz"
REM DATE "2012"
REM DISCNUMBER 5
REM TOTALDISCS 7
REM DISCID 26096E03
REM REPLAYGAIN_ALBUM_GAIN -2.04 dB
REM REPLAYGAIN_ALBUM_PEAK 0.898743
FILE "01 - Elastic Part 1.flac" WAVE
TRACK 01 AUDIO
TITLE "Elastic Part 1"
PERFORMER "Joe McPhee, Paal Nilssen-Love"
FLAGS DCP
REM COMMENT "Recorded live in concert on August 30th 2012 at Elastic, Chicago, USA. Photo by Lasse Marhaug. Thanks to Dave Rempis. "
REM REPLAYGAIN_TRACK_GAIN -2.59 dB
REM REPLAYGAIN_TRACK_PEAK 0.898743
INDEX 01 00:00:00
FILE "02 - Elastic Part 2.flac" WAVE
TRACK 02 AUDIO
TITLE "Elastic Part 2"
PERFORMER "Joe McPhee, Paal Nilssen-Love"
FLAGS DCP
REM COMMENT "Recorded live in concert on August 30th 2012 at Elastic, Chicago, USA. Photo by Lasse Marhaug. Thanks to Dave Rempis. "
REM REPLAYGAIN_TRACK_GAIN -0.69 dB
REM REPLAYGAIN_TRACK_PEAK 0.898743
INDEX 01 00:00:00
FILE "03 - Elastic Part 3.flac" WAVE
TRACK 03 AUDIO
TITLE "Elastic Part 3"
PERFORMER "Joe McPhee, Paal Nilssen-Love"
FLAGS DCP
REM COMMENT "Recorded live in concert on August 30th 2012 at Elastic, Chicago, USA. Photo by Lasse Marhaug. Thanks to Dave Rempis. "
REM REPLAYGAIN_TRACK_GAIN -0.63 dB
REM REPLAYGAIN_TRACK_PEAK 0.898743
INDEX 01 00:00:00
 
06 - 2013-01-25 - Candy


06 - 2013-01-25 - Candy

6.1 Candy Part 1 18:06
6.2 Candy Part 2 20:06
6.3 Candy Part 3 4:21

 
.log
X Lossless Decoder version 20151214 (149.1)
XLD extraction logfile from 2016-01-04 19:14:24 +0300
Joe McPhee, Paal Nilssen-Love / Candy: Candy
Used drive : HL-DT-ST DVDRW GX30N (revision RP09)
Media type : Pressed CD
Ripper mode : XLD Secure Ripper
Disable audio cache : OK for the drive with a cache less than 1375KiB
Make use of C2 pointers : NO
Read offset correction : 6
Max retry count : 100
Gap status : Analyzed, Appended (except HTOA)
TOC of the extracted CD
Track | Start | Length | Start sector | End sector
---------------------------------------------------------
1 | 00:00:00 | 18:06:20 | 0 | 81469
2 | 18:06:20 | 20:06:54 | 81470 | 171973
3 | 38:12:74 | 04:21:29 | 171974 | 191577
AccurateRip Summary
Disc not found in AccurateRip DB.
All Tracks
Album gain : -9.12 dB
Peak : 0.868805
Statistics
Read error : 0
Jitter error (maybe fixed) : 0
Retry sector count : 0
Damaged sector count : 0
Track 01
Filename : /Users/anch/Music/Grabbed/Joe McPhee, Paal Nilssen-Love/06 - 2013 - Candy - Candy/01 - Candy Part 1.flac
Pre-gap length : 00:02:00
Track gain : -9.10 dB
Peak : 0.868805
CRC32 hash (test run) : 45C8F00B
CRC32 hash : 45C8F00B
CRC32 hash (skip zero) : 1964A809
AccurateRip v1 signature : 7889B4E7
AccurateRip v2 signature : 5914ABDA
->Track not present in AccurateRip database.
Statistics
Read error : 0
Jitter error (maybe fixed) : 0
Retry sector count : 0
Damaged sector count : 0
Track 02
Filename : /Users/anch/Music/Grabbed/Joe McPhee, Paal Nilssen-Love/06 - 2013 - Candy - Candy/02 - Candy Part 2.flac
Track gain : -9.16 dB
Peak : 0.868805
CRC32 hash (test run) : 77AA568F
CRC32 hash : 77AA568F
CRC32 hash (skip zero) : 3CEA6C1E
AccurateRip v1 signature : 6168B671
AccurateRip v2 signature : AA673832
->Track not present in AccurateRip database.
Statistics
Read error : 0
Jitter error (maybe fixed) : 0
Retry sector count : 0
Damaged sector count : 0
Track 03
Filename : /Users/anch/Music/Grabbed/Joe McPhee, Paal Nilssen-Love/06 - 2013 - Candy - Candy/03 - Candy Part 3.flac
Track gain : -9.04 dB
Peak : 0.868805
CRC32 hash (test run) : D78436A6
CRC32 hash : D78436A6
CRC32 hash (skip zero) : 9E8A45F8
AccurateRip v1 signature : EDAB92D8
AccurateRip v2 signature : BD961BC1
->Track not present in AccurateRip database.
Statistics
Read error : 0
Jitter error (maybe fixed) : 0
Retry sector count : 0
Damaged sector count : 0
No errors occurred
End of status report
-----BEGIN XLD SIGNATURE-----
NCsHjelx54ap.GT0uTRPjZci0Ivi74PWfmsyvGnDGsuWn4PjDkDNTEmq2SX0x.m4imA_JzQqy6KAe7IS7GUe2l_jN.GCL7f52RDjhK4
-----END XLD SIGNATURE-----
 
.cue
TITLE "Candy: Candy"
PERFORMER "Joe McPhee, Paal Nilssen-Love"
REM GENRE "Free Jazz"
REM DATE "2013"
REM DISCNUMBER 6
REM TOTALDISCS 7
REM DISCID 2409FA03
REM REPLAYGAIN_ALBUM_GAIN -9.12 dB
REM REPLAYGAIN_ALBUM_PEAK 0.868805
FILE "01 - Candy Part 1.flac" WAVE
TRACK 01 AUDIO
TITLE "Candy Part 1"
PERFORMER "Joe McPhee, Paal Nilssen-Love"
FLAGS DCP
REM COMMENT "Recorded live in concert on January 25th 2013 at Jazzspot Candy, Chiba, Japan. Photo by Mark Rappaport. Thanks to Sachi Hasasaka, Rio Nagata, Kino Eigen, Mark Rappaport and Miyoko Hayashi."
REM REPLAYGAIN_TRACK_GAIN -9.10 dB
REM REPLAYGAIN_TRACK_PEAK 0.868805
INDEX 01 00:00:00
FILE "02 - Candy Part 2.flac" WAVE
TRACK 02 AUDIO
TITLE "Candy Part 2"
PERFORMER "Joe McPhee, Paal Nilssen-Love"
FLAGS DCP
REM COMMENT "Recorded live in concert on January 25th 2013 at Jazzspot Candy, Chiba, Japan. Photo by Mark Rappaport. Thanks to Sachi Hasasaka, Rio Nagata, Kino Eigen, Mark Rappaport and Miyoko Hayashi."
REM REPLAYGAIN_TRACK_GAIN -9.16 dB
REM REPLAYGAIN_TRACK_PEAK 0.868805
INDEX 01 00:00:00
FILE "03 - Candy Part 3.flac" WAVE
TRACK 03 AUDIO
TITLE "Candy Part 3"
PERFORMER "Joe McPhee, Paal Nilssen-Love"
FLAGS DCP
REM COMMENT "Recorded live in concert on January 25th 2013 at Jazzspot Candy, Chiba, Japan. Photo by Mark Rappaport. Thanks to Sachi Hasasaka, Rio Nagata, Kino Eigen, Mark Rappaport and Miyoko Hayashi."
REM REPLAYGAIN_TRACK_GAIN -9.04 dB
REM REPLAYGAIN_TRACK_PEAK 0.868805
INDEX 01 00:00:00
 
07 - 2014-06-21 - Palm Tavern


07 - 2014-06-21 - Palm Tavern

7.1 Palm Tavern Part 1 10:33
7.2 Palm Tavern Part 2 8:11
7.3 Palm Tavern Part 3 6:26
7.4 Palm Tavern Part 4 8:18
7.5 Palm Tavern Part 5 13:05
7.6 Palm Tavern Part 6 4:09

 
.log
X Lossless Decoder version 20151214 (149.1)
XLD extraction logfile from 2016-01-04 20:11:10 +0300
Joe McPhee, Paal Nilssen-Love / Candy: Palm Tavern
Used drive : HL-DT-ST DVDRW GX30N (revision RP09)
Media type : Pressed CD
Ripper mode : XLD Secure Ripper
Disable audio cache : OK for the drive with a cache less than 1375KiB
Make use of C2 pointers : NO
Read offset correction : 6
Max retry count : 100
Gap status : Analyzed, Appended (except HTOA)
TOC of the extracted CD
Track | Start | Length | Start sector | End sector
---------------------------------------------------------
1 | 00:00:00 | 10:33:20 | 0 | 47494
2 | 10:33:20 | 08:11:10 | 47495 | 84329
3 | 18:44:30 | 06:26:41 | 84330 | 113320
4 | 25:10:71 | 08:18:02 | 113321 | 150672
5 | 33:28:73 | 13:07:19 | 150673 | 209716
6 | 46:36:17 | 04:09:62 | 209717 | 228453
AccurateRip Summary
Disc not found in AccurateRip DB.
All Tracks
Album gain : -5.30 dB
Peak : 0.916382
Statistics
Read error : 0
Jitter error (maybe fixed) : 0
Retry sector count : 0
Damaged sector count : 0
Track 01
Filename : /Users/anch/Music/Grabbed/Joe McPhee, Paal Nilssen-Love/07 - 2014 - Candy - Palm Tavern/01 - Palm Tavern Part 1.flac
Pre-gap length : 00:02:00
Track gain : -1.14 dB
Peak : 0.916382
CRC32 hash (test run) : 3191CB6F
CRC32 hash : 3191CB6F
CRC32 hash (skip zero) : A00F932C
AccurateRip v1 signature : D0A05E29
AccurateRip v2 signature : 6B141483
->Track not present in AccurateRip database.
Statistics
Read error : 0
Jitter error (maybe fixed) : 0
Retry sector count : 0
Damaged sector count : 0
Track 02
Filename : /Users/anch/Music/Grabbed/Joe McPhee, Paal Nilssen-Love/07 - 2014 - Candy - Palm Tavern/02 - Palm Tavern Part 2.flac
Track gain : -0.93 dB
Peak : 0.916382
CRC32 hash (test run) : A0B2CED0
CRC32 hash : A0B2CED0
CRC32 hash (skip zero) : 4459BC16
AccurateRip v1 signature : 8845A843
AccurateRip v2 signature : 107C6A52
->Track not present in AccurateRip database.
Statistics
Read error : 0
Jitter error (maybe fixed) : 0
Retry sector count : 0
Damaged sector count : 0
Track 03
Filename : /Users/anch/Music/Grabbed/Joe McPhee, Paal Nilssen-Love/07 - 2014 - Candy - Palm Tavern/03 - Palm Tavern Part 3.flac
Track gain : -3.82 dB
Peak : 0.916382
CRC32 hash (test run) : 7F51F601
CRC32 hash : 7F51F601
CRC32 hash (skip zero) : 8479D292
AccurateRip v1 signature : E2E80CC2
AccurateRip v2 signature : 1BC94E31
->Track not present in AccurateRip database.
Statistics
Read error : 0
Jitter error (maybe fixed) : 0
Retry sector count : 0
Damaged sector count : 0
Track 04
Filename : /Users/anch/Music/Grabbed/Joe McPhee, Paal Nilssen-Love/07 - 2014 - Candy - Palm Tavern/04 - Palm Tavern Part 4.flac
Track gain : -4.38 dB
Peak : 0.916382
CRC32 hash (test run) : 7A5F1004
CRC32 hash : 7A5F1004
CRC32 hash (skip zero) : 3C68B960
AccurateRip v1 signature : 4C12389F
AccurateRip v2 signature : 5E826510
->Track not present in AccurateRip database.
Statistics
Read error : 0
Jitter error (maybe fixed) : 0
Retry sector count : 0
Damaged sector count : 0
Track 05
Filename : /Users/anch/Music/Grabbed/Joe McPhee, Paal Nilssen-Love/07 - 2014 - Candy - Palm Tavern/05 - Palm Tavern Part 5.flac
Track gain : -7.18 dB
Peak : 0.916382
CRC32 hash (test run) : D6D6A493
CRC32 hash : D6D6A493
CRC32 hash (skip zero) : AAD65636
AccurateRip v1 signature : EF0396E0
AccurateRip v2 signature : 5CB3823C
->Track not present in AccurateRip database.
Statistics
Read error : 0
Jitter error (maybe fixed) : 0
Retry sector count : 0
Damaged sector count : 0
Track 06
Filename : /Users/anch/Music/Grabbed/Joe McPhee, Paal Nilssen-Love/07 - 2014 - Candy - Palm Tavern/06 - Palm Tavern Part 6.flac
Pre-gap length : 00:02:00
Track gain : -0.13 dB
Peak : 0.916382
CRC32 hash (test run) : 3341B3A1
CRC32 hash : 3341B3A1
CRC32 hash (skip zero) : 20566767
AccurateRip v1 signature : 1A1585D0
AccurateRip v2 signature : 394EFC87
->Track not present in AccurateRip database.
Statistics
Read error : 0
Jitter error (maybe fixed) : 0
Retry sector count : 0
Damaged sector count : 0
No errors occurred
End of status report
-----BEGIN XLD SIGNATURE-----
vAyuEnaaQGB4WWyjeoIhSiB7mnKKAsWS8j2FPrgoihLHHUtyVOvxDU6Tsfq2GKWx52g_GWWU5CjDt_i9.JrtTfLZTXtRuN90SWpa03m
-----END XLD SIGNATURE-----
 
.cue
TITLE "Candy: Palm Tavern"
PERFORMER "Joe McPhee, Paal Nilssen-Love"
REM GENRE "Free Jazz"
REM DATE "2014"
REM DISCNUMBER 7
REM TOTALDISCS 7
REM DISCID 400BE606
REM REPLAYGAIN_ALBUM_GAIN -5.30 dB
REM REPLAYGAIN_ALBUM_PEAK 0.916382
FILE "01 - Palm Tavern Part 1.flac" WAVE
TRACK 01 AUDIO
TITLE "Palm Tavern Part 1"
PERFORMER "Joe McPhee, Paal Nilssen-Love"
FLAGS DCP
REM COMMENT "Recorded live in concert on June 21st 2014 at the Palm Tavern, Milwaukee, USA during Okkafest 2014. Photo by Micke Keysendal. Thanks to Adrienne Pierluissi, Bruno Johnson and Ken Vandermark."
REM REPLAYGAIN_TRACK_GAIN -1.14 dB
REM REPLAYGAIN_TRACK_PEAK 0.916382
INDEX 01 00:00:00
FILE "02 - Palm Tavern Part 2.flac" WAVE
TRACK 02 AUDIO
TITLE "Palm Tavern Part 2"
PERFORMER "Joe McPhee, Paal Nilssen-Love"
FLAGS DCP
REM COMMENT "Recorded live in concert on June 21st 2014 at the Palm Tavern, Milwaukee, USA during Okkafest 2014. Photo by Micke Keysendal. Thanks to Adrienne Pierluissi, Bruno Johnson and Ken Vandermark."
REM REPLAYGAIN_TRACK_GAIN -0.93 dB
REM REPLAYGAIN_TRACK_PEAK 0.916382
INDEX 01 00:00:00
FILE "03 - Palm Tavern Part 3.flac" WAVE
TRACK 03 AUDIO
TITLE "Palm Tavern Part 3"
PERFORMER "Joe McPhee, Paal Nilssen-Love"
FLAGS DCP
REM COMMENT "Recorded live in concert on June 21st 2014 at the Palm Tavern, Milwaukee, USA during Okkafest 2014. Photo by Micke Keysendal. Thanks to Adrienne Pierluissi, Bruno Johnson and Ken Vandermark."
REM REPLAYGAIN_TRACK_GAIN -3.82 dB
REM REPLAYGAIN_TRACK_PEAK 0.916382
INDEX 01 00:00:00
FILE "04 - Palm Tavern Part 4.flac" WAVE
TRACK 04 AUDIO
TITLE "Palm Tavern Part 4"
PERFORMER "Joe McPhee, Paal Nilssen-Love"
FLAGS DCP
REM COMMENT "Recorded live in concert on June 21st 2014 at the Palm Tavern, Milwaukee, USA during Okkafest 2014. Photo by Micke Keysendal. Thanks to Adrienne Pierluissi, Bruno Johnson and Ken Vandermark."
REM REPLAYGAIN_TRACK_GAIN -4.38 dB
REM REPLAYGAIN_TRACK_PEAK 0.916382
INDEX 01 00:00:00
FILE "05 - Palm Tavern Part 5.flac" WAVE
TRACK 05 AUDIO
TITLE "Palm Tavern Part 5"
PERFORMER "Joe McPhee, Paal Nilssen-Love"
FLAGS DCP
REM COMMENT "Recorded live in concert on June 21st 2014 at the Palm Tavern, Milwaukee, USA during Okkafest 2014. Photo by Micke Keysendal. Thanks to Adrienne Pierluissi, Bruno Johnson and Ken Vandermark."
REM REPLAYGAIN_TRACK_GAIN -7.18 dB
REM REPLAYGAIN_TRACK_PEAK 0.916382
INDEX 01 00:00:00
TRACK 06 AUDIO
TITLE "Palm Tavern Part 6"
PERFORMER "Joe McPhee, Paal Nilssen-Love"
FLAGS DCP
REM COMMENT "Recorded live in concert on June 21st 2014 at the Palm Tavern, Milwaukee, USA during Okkafest 2014. Photo by Micke Keysendal. Thanks to Adrienne Pierluissi, Bruno Johnson and Ken Vandermark."
REM REPLAYGAIN_TRACK_GAIN -0.13 dB
REM REPLAYGAIN_TRACK_PEAK 0.916382
INDEX 00 13:05:19
FILE "06 - Palm Tavern Part 6.flac" WAVE
INDEX 01 00:00:00
http://www.discogs.com/Joe-McPhee-Paal-Nilssen-Love-Candy/release/7350654
другие релизы
18:35
333
Нет комментариев. Ваш будет первым!