Вы используете незарегистрированную версию компонента "Вкладки"!

Поиск

(free jazz) [cd] Jacques Coursil with Alan Silva - FreeJazzArt- Sessions for Bill Dixon (2014), FLAC (tracks+.cue), lossless

(free jazz) [cd] Jacques Coursil with Alan Silva - FreeJazzArt- Sessions for Bill Dixon (2014), FLAC (tracks+.cue), lossless
Треклист:
(free jazz) [cd] Jacques Coursil with Alan Silva - FreeJazzArt- Sessions for Bill Dixon (2014), FLAC (tracks+.cue), lossless


Jacques Coursil with Alan Silva - FreeJazzArt- Sessions for Bill Dixon (2014)

Жанр: free jazz
Год выпуска: 2014
Издатель (лейбл):RogueArt / Rog-0052
Формат: FLAC (tracks+.cue)
Битрейт аудио: lossless
Продолжительность 43`01
Источник: what.cd

tracks

1 An Evening And A Night At The Annex Bar 1 3:14
2 An Evening And A Night At The Annex Bar 2 3:51
3 An Evening And A Night At The Annex Bar 3 2:25
4 An Evening And A Night At The Annex Bar 4 4:01
5 An Evening And A Night At The Annex Bar 5 2:41
6 Brooklyn Bridge, The Metal And The Wind 1 3:05
7 Brooklyn Bridge, The Metal And The Wind 2 3:08
8 Brooklyn Bridge, The Metal And The Wind 3 2:51
9 Brooklyn Bridge, The Metal And The Wind 4 2:21
10 Brooklyn Bridge, The Metal And The Wind 5 2:41
11 Bennington-New York, Round Trip 1 2:04
12 Bennington-New York, Round Trip 2 2:26
13 Bennington-New York, Round Trip 3 1:30
14 Bennington-New York, Round Trip 4 2:47
15 Bennington-New York, Round Trip 5 3:57


 
.log
Exact Audio Copy V1.0 beta 3 from 29. August 2011
EAC extraction logfile from 16. February 2015, 1:16
Jacques Coursil with Alan Silva / FreeJazzArt: Sessions for Bill Dixon
Used drive : HL-DT-STDVDRAM SP60NB50 Adapter: 0 ID: 0
Read mode : Secure
Utilize accurate stream : Yes
Defeat audio cache : Yes
Make use of C2 pointers : No
Read offset correction : 6
Overread into Lead-In and Lead-Out : No
Fill up missing offset samples with silence : Yes
Delete leading and trailing silent blocks : No
Null samples used in CRC calculations : Yes
Used interface : Native Win32 interface for Win NT & 2000
Gap handling : Appended to previous track
Used output format : User Defined Encoder
Selected bitrate : 1024 kBit/s
Quality : High
Add ID3 tag : No
Command line compressor : C:\Program Files (x86)\FLAC\flac.exe
Additional command line options : -8 -V -T "ARTIST=%artist%" -T "TITLE=%title%" -T "ALBUM=%albumtitle%" -T "DATE=%year%" -T "TRACKNUMBER=%tracknr%" -T "GENRE=%genre%" -T "PERFORMER=%albuminterpret%" -T "COMPOSER=%composer%" %haslyrics%--tag-from-file=LYRICS="%lyricsfile%"%haslyrics% -T "ALBUMARTIST=%albumartist%" -T "DISCNUMBER=%cdnumber%" -T "TOTALDISCS=%totalcds%" -T "TOTALTRACKS=%numtracks%" -T "COMMENT=%comment%" %source% -o %dest%
TOC of the extracted CD
Track | Start | Length | Start sector | End sector
---------------------------------------------------------
1 | 0:00.00 | 3:13.73 | 0 | 14547
2 | 3:13.73 | 3:51.01 | 14548 | 31873
3 | 7:04.74 | 2:24.38 | 31874 | 42711
4 | 9:29.37 | 4:00.69 | 42712 | 60780
5 | 13:30.31 | 2:41.03 | 60781 | 72858
6 | 16:11.34 | 3:04.67 | 72859 | 86725
7 | 19:16.26 | 3:08.31 | 86726 | 100856
8 | 22:24.57 | 2:50.43 | 100857 | 113649
9 | 25:15.25 | 2:20.66 | 113650 | 124215
10 | 27:36.16 | 2:40.54 | 124216 | 136269
11 | 30:16.70 | 2:03.67 | 136270 | 145561
12 | 32:20.62 | 2:26.31 | 145562 | 156542
13 | 34:47.18 | 1:29.43 | 156543 | 163260
14 | 36:16.61 | 2:46.66 | 163261 | 175776
15 | 39:03.52 | 3:57.16 | 175777 | 193567
Track 1
Filename C:\EAC Rips\Jacques Coursil with Alan Silva - FreeJazzArt- Sessions for Bill Dixon (2014) [FLAC]\01 An Evening and a Night at THE ANNEX Bar Part 1.wav
Pre-gap length 0:00:02.00
Peak level 91.4 %
Extraction speed 1.0 X
Track quality 100.0 %
Test CRC 563DA9A9
Copy CRC 563DA9A9
Track not present in AccurateRip database
Copy OK
Track 2
Filename C:\EAC Rips\Jacques Coursil with Alan Silva - FreeJazzArt- Sessions for Bill Dixon (2014) [FLAC]\02 An Evening and a Night at THE ANNEX Bar Part 2.wav
Peak level 95.8 %
Extraction speed 1.2 X
Track quality 100.0 %
Test CRC F0130AE1
Copy CRC F0130AE1
Track not present in AccurateRip database
Copy OK
Track 3
Filename C:\EAC Rips\Jacques Coursil with Alan Silva - FreeJazzArt- Sessions for Bill Dixon (2014) [FLAC]\03 An Evening and a Night at THE ANNEX Bar Part 3.wav
Peak level 94.9 %
Extraction speed 1.2 X
Track quality 100.0 %
Test CRC 308F06F8
Copy CRC 308F06F8
Track not present in AccurateRip database
Copy OK
Track 4
Filename C:\EAC Rips\Jacques Coursil with Alan Silva - FreeJazzArt- Sessions for Bill Dixon (2014) [FLAC]\04 An Evening and a Night at THE ANNEX Bar Part 4.wav
Peak level 100.0 %
Extraction speed 1.3 X
Track quality 100.0 %
Test CRC 5CAE9711
Copy CRC 5CAE9711
Track not present in AccurateRip database
Copy OK
Track 5
Filename C:\EAC Rips\Jacques Coursil with Alan Silva - FreeJazzArt- Sessions for Bill Dixon (2014) [FLAC]\05 An Evening and a Night at THE ANNEX Bar Part 5.wav
Peak level 97.1 %
Extraction speed 1.3 X
Track quality 100.0 %
Test CRC F7F9AD4D
Copy CRC F7F9AD4D
Track not present in AccurateRip database
Copy OK
Track 6
Filename C:\EAC Rips\Jacques Coursil with Alan Silva - FreeJazzArt- Sessions for Bill Dixon (2014) [FLAC]\06 Brooklyn Bridge, the River, the Metal and the Wind Part 1.wav
Peak level 100.0 %
Extraction speed 1.2 X
Track quality 99.9 %
Test CRC 295C1AF7
Copy CRC 295C1AF7
Track not present in AccurateRip database
Copy OK
Track 7
Filename C:\EAC Rips\Jacques Coursil with Alan Silva - FreeJazzArt- Sessions for Bill Dixon (2014) [FLAC]\07 Brooklyn Bridge, the River, the Metal and the Wind Part 2.wav
Peak level 96.3 %
Extraction speed 1.5 X
Track quality 100.0 %
Test CRC D727393F
Copy CRC D727393F
Track not present in AccurateRip database
Copy OK
Track 8
Filename C:\EAC Rips\Jacques Coursil with Alan Silva - FreeJazzArt- Sessions for Bill Dixon (2014) [FLAC]\08 Brooklyn Bridge, the River, the Metal and the Wind Part 3.wav
Peak level 98.8 %
Extraction speed 1.5 X
Track quality 100.0 %
Test CRC B20CBB7B
Copy CRC B20CBB7B
Track not present in AccurateRip database
Copy OK
Track 9
Filename C:\EAC Rips\Jacques Coursil with Alan Silva - FreeJazzArt- Sessions for Bill Dixon (2014) [FLAC]\09 Brooklyn Bridge, the River, the Metal and the Wind Part 4.wav
Peak level 98.5 %
Extraction speed 1.5 X
Track quality 100.0 %
Test CRC 954C9B9B
Copy CRC 954C9B9B
Track not present in AccurateRip database
Copy OK
Track 10
Filename C:\EAC Rips\Jacques Coursil with Alan Silva - FreeJazzArt- Sessions for Bill Dixon (2014) [FLAC]\10 Brooklyn Bridge, the River, the Metal and the Wind Part 5.wav
Peak level 94.3 %
Extraction speed 1.6 X
Track quality 100.0 %
Test CRC 214ADB8B
Copy CRC 214ADB8B
Track not present in AccurateRip database
Copy OK
Track 11
Filename C:\EAC Rips\Jacques Coursil with Alan Silva - FreeJazzArt- Sessions for Bill Dixon (2014) [FLAC]\11 Bennington-New York, Round Trip Part 1.wav
Peak level 90.4 %
Extraction speed 1.6 X
Track quality 100.0 %
Test CRC DDA15007
Copy CRC DDA15007
Track not present in AccurateRip database
Copy OK
Track 12
Filename C:\EAC Rips\Jacques Coursil with Alan Silva - FreeJazzArt- Sessions for Bill Dixon (2014) [FLAC]\12 Bennington-New York, Round Trip Part 2.wav
Peak level 96.6 %
Extraction speed 1.4 X
Track quality 99.9 %
Test CRC 515EA9D2
Copy CRC 515EA9D2
Track not present in AccurateRip database
Copy OK
Track 13
Filename C:\EAC Rips\Jacques Coursil with Alan Silva - FreeJazzArt- Sessions for Bill Dixon (2014) [FLAC]\13 Bennington-New York, Round Trip Part 3.wav
Peak level 89.2 %
Extraction speed 1.5 X
Track quality 100.0 %
Test CRC E102BB7C
Copy CRC E102BB7C
Track not present in AccurateRip database
Copy OK
Track 14
Filename C:\EAC Rips\Jacques Coursil with Alan Silva - FreeJazzArt- Sessions for Bill Dixon (2014) [FLAC]\14 Bennington-New York, Round Trip Part 4.wav
Peak level 93.6 %
Extraction speed 1.8 X
Track quality 100.0 %
Test CRC 059D8559
Copy CRC 059D8559
Track not present in AccurateRip database
Copy OK
Track 15
Filename C:\EAC Rips\Jacques Coursil with Alan Silva - FreeJazzArt- Sessions for Bill Dixon (2014) [FLAC]\15 Bennington-New York, Round Trip Part 5.wav
Peak level 91.6 %
Extraction speed 2.0 X
Track quality 100.0 %
Test CRC 094EBA4D
Copy CRC 094EBA4D
Track not present in AccurateRip database
Copy OK
None of the tracks are present in the AccurateRip database
No errors occurred
End of status report
---- CUETools DB Plugin V2.1.3
[CTDB TOCID: Gz1xBPtdZ7KTJWotc82xArpcC7k-] found, Submit result: already submitted
[2769cb65] (2/2) Accurately ripped
==== Log checksum 232F43AE071277135DC44A6778740DBC92787A8B5A8FF653087203D7A371BF52 ====
 
.cue
REM GENRE Jazz
REM DATE 2014
REM DISCID DC0A140F
REM COMMENT "ExactAudioCopy v1.0b3"
PERFORMER "Jacques Coursil with Alan Silva"
TITLE "FreeJazzArt: Sessions for Bill Dixon"
FILE "01 An Evening and a Night at THE ANNEX Bar Part 1.wav" WAVE
TRACK 01 AUDIO
TITLE "An Evening and a Night at THE ANNEX Bar Part 1"
PERFORMER "Jacques Coursil with Alan Silva"
FLAGS DCP
INDEX 01 00:00:00
FILE "02 An Evening and a Night at THE ANNEX Bar Part 2.wav" WAVE
TRACK 02 AUDIO
TITLE "An Evening and a Night at THE ANNEX Bar Part 2"
PERFORMER "Jacques Coursil with Alan Silva"
FLAGS DCP
INDEX 01 00:00:00
FILE "03 An Evening and a Night at THE ANNEX Bar Part 3.wav" WAVE
TRACK 03 AUDIO
TITLE "An Evening and a Night at THE ANNEX Bar Part 3"
PERFORMER "Jacques Coursil with Alan Silva"
FLAGS DCP
INDEX 01 00:00:00
FILE "04 An Evening and a Night at THE ANNEX Bar Part 4.wav" WAVE
TRACK 04 AUDIO
TITLE "An Evening and a Night at THE ANNEX Bar Part 4"
PERFORMER "Jacques Coursil with Alan Silva"
FLAGS DCP
INDEX 01 00:00:00
FILE "05 An Evening and a Night at THE ANNEX Bar Part 5.wav" WAVE
TRACK 05 AUDIO
TITLE "An Evening and a Night at THE ANNEX Bar Part 5"
PERFORMER "Jacques Coursil with Alan Silva"
FLAGS DCP
INDEX 01 00:00:00
FILE "06 Brooklyn Bridge, the River, the Metal and the Wind Part 1.wav" WAVE
TRACK 06 AUDIO
TITLE "Brooklyn Bridge, the River, the Metal and the Wind Part 1"
PERFORMER "Jacques Coursil with Alan Silva"
FLAGS DCP
INDEX 01 00:00:00
FILE "07 Brooklyn Bridge, the River, the Metal and the Wind Part 2.wav" WAVE
TRACK 07 AUDIO
TITLE "Brooklyn Bridge, the River, the Metal and the Wind Part 2"
PERFORMER "Jacques Coursil with Alan Silva"
FLAGS DCP
INDEX 01 00:00:00
FILE "08 Brooklyn Bridge, the River, the Metal and the Wind Part 3.wav" WAVE
TRACK 08 AUDIO
TITLE "Brooklyn Bridge, the River, the Metal and the Wind Part 3"
PERFORMER "Jacques Coursil with Alan Silva"
FLAGS DCP
INDEX 01 00:00:00
FILE "09 Brooklyn Bridge, the River, the Metal and the Wind Part 4.wav" WAVE
TRACK 09 AUDIO
TITLE "Brooklyn Bridge, the River, the Metal and the Wind Part 4"
PERFORMER "Jacques Coursil with Alan Silva"
FLAGS DCP
INDEX 01 00:00:00
FILE "10 Brooklyn Bridge, the River, the Metal and the Wind Part 5.wav" WAVE
TRACK 10 AUDIO
TITLE "Brooklyn Bridge, the River, the Metal and the Wind Part 5"
PERFORMER "Jacques Coursil with Alan Silva"
FLAGS DCP
INDEX 01 00:00:00
FILE "11 Bennington-New York, Round Trip Part 1.wav" WAVE
TRACK 11 AUDIO
TITLE "Bennington-New York, Round Trip Part 1"
PERFORMER "Jacques Coursil with Alan Silva"
FLAGS DCP
INDEX 01 00:00:00
FILE "12 Bennington-New York, Round Trip Part 2.wav" WAVE
TRACK 12 AUDIO
TITLE "Bennington-New York, Round Trip Part 2"
PERFORMER "Jacques Coursil with Alan Silva"
FLAGS DCP
INDEX 01 00:00:00
FILE "13 Bennington-New York, Round Trip Part 3.wav" WAVE
TRACK 13 AUDIO
TITLE "Bennington-New York, Round Trip Part 3"
PERFORMER "Jacques Coursil with Alan Silva"
FLAGS DCP
INDEX 01 00:00:00
FILE "14 Bennington-New York, Round Trip Part 4.wav" WAVE
TRACK 14 AUDIO
TITLE "Bennington-New York, Round Trip Part 4"
PERFORMER "Jacques Coursil with Alan Silva"
FLAGS DCP
INDEX 01 00:00:00
FILE "15 Bennington-New York, Round Trip Part 5.wav" WAVE
TRACK 15 AUDIO
TITLE "Bennington-New York, Round Trip Part 5"
PERFORMER "Jacques Coursil with Alan Silva"
FLAGS DCP
INDEX 01 00:00:00

http://web.roguart.com/shop/album/id/76
другие релизы
По всем вопросам пишите личное сообщение пользователю M0p94ok.
14:26
321
Нет комментариев. Ваш будет первым!