Вы используете незарегистрированную версию компонента "Вкладки"!

Поиск

(Free Jazz) [CD] Ivo Perelman, Matt Shipp, Michael Bisio, Whit Dickey - The Edge - 2013, FLAC (tracks+.cue), lossless

(Free Jazz) [CD] Ivo Perelman, Matt Shipp, Michael Bisio, Whit Dickey - The Edge - 2013, FLAC (tracks+.cue), lossless
Треклист:
Ivo Perelman, Matt Shipp, Michael Bisio, Whit Dickey / The Edge
Жанр: Free Jazz
Носитель: CD
Страна-производитель диска (релиза): UK
Год издания: 2013
Издатель (лейбл): Leo Records
Номер по каталогу: CD LR 667
Аудиокодек: FLAC (*.flac)
Тип рипа: tracks+.cue
Битрейт аудио: lossless
Продолжительность: 42:07
Источник (релизер): CD
Наличие сканов в содержимом раздачи: нет
Треклист:
1. Clarinblasen 5:57
2. Lancaster 6:14
3. Epigraph 1:08
4. The Edge 5:37
5. Zapotecs 1:48
6. Fatal Thorns 5:37
7. Interlude 0:44
8. Volcanic 9:43
9. Websterisms 5:18
 
Лог создания рипа
Exact Audio Copy V1.0 beta 3 from 29. August 2011
EAC extraction logfile from 24. January 2015, 11:19
Ivo Perelman, Matt Shipp, Michael Bisio, Whit Dickey / The Edge
Used drive : ASUS DRW-24F1ST a Adapter: 0 ID: 0
Read mode : Secure
Utilize accurate stream : Yes
Defeat audio cache : Yes
Make use of C2 pointers : No
Read offset correction : 6
Overread into Lead-In and Lead-Out : No
Fill up missing offset samples with silence : Yes
Delete leading and trailing silent blocks : No
Null samples used in CRC calculations : Yes
Used interface : Native Win32 interface for Win NT & 2000
Gap handling : Appended to previous track
Used output format : User Defined Encoder
Selected bitrate : 320 kBit/s
Quality : High
Add ID3 tag : No
Command line compressor : D:\Programs\Exact Audio Copy\Flac\flac.exe
Additional command line options : -V -8 -T "Genre=%genre%" -T "Artist=%artist%" -T "Title=%title%" -T "Album=%albumtitle%" -T "Date=%year%" -T "Tracknumber=%tracknr%" -T "Comment=%comment%" %source%
TOC of the extracted CD
Track | Start | Length | Start sector | End sector
---------------------------------------------------------
1 | 0:00.00 | 5:56.40 | 0 | 26739
2 | 5:56.40 | 6:13.72 | 26740 | 54786
3 | 12:10.37 | 1:08.16 | 54787 | 59902
4 | 13:18.53 | 5:36.74 | 59903 | 85176
5 | 18:55.52 | 1:50.10 | 85177 | 93436
6 | 20:45.62 | 5:37.17 | 93437 | 118728
7 | 26:23.04 | 0:43.72 | 118729 | 122025
8 | 27:07.01 | 9:43.13 | 122026 | 165763
9 | 36:50.14 | 5:17.58 | 165764 | 189596
Track 1
Filename D:\EAC\01 Clarinblasen.wav
Pre-gap length 0:00:02.00
Peak level 100.0 %
Extraction speed 4.5 X
Track quality 99.9 %
Test CRC DB4F90A5
Copy CRC DB4F90A5
Copy OK
Track 2
Filename D:\EAC\02 Lancaster.wav
Pre-gap length 0:00:02.00
Peak level 100.0 %
Extraction speed 5.6 X
Track quality 100.0 %
Test CRC 1C2CE11E
Copy CRC 1C2CE11E
Copy OK
Track 3
Filename D:\EAC\03 Epigraph.wav
Pre-gap length 0:00:02.00
Peak level 99.9 %
Extraction speed 4.1 X
Track quality 100.0 %
Test CRC 3D579425
Copy CRC 3D579425
Copy OK
Track 4
Filename D:\EAC\04 The Edge.wav
Pre-gap length 0:00:02.00
Peak level 100.0 %
Extraction speed 5.7 X
Track quality 99.9 %
Test CRC ADCBAAF3
Copy CRC ADCBAAF3
Copy OK
Track 5
Filename D:\EAC\05 Zapotecs.wav
Pre-gap length 0:00:02.00
Peak level 100.0 %
Extraction speed 5.3 X
Track quality 100.0 %
Test CRC A8AA0AD0
Copy CRC A8AA0AD0
Copy OK
Track 6
Filename D:\EAC\06 Fatal Thorns.wav
Pre-gap length 0:00:02.00
Peak level 100.0 %
Extraction speed 6.9 X
Track quality 100.0 %
Test CRC B59C59BB
Copy CRC B59C59BB
Copy OK
Track 7
Filename D:\EAC\07 Interlude.wav
Pre-gap length 0:00:02.00
Peak level 77.3 %
Extraction speed 4.1 X
Track quality 100.0 %
Test CRC CE74A53F
Copy CRC CE74A53F
Copy OK
Track 8
Filename D:\EAC\08 Volcanic.wav
Pre-gap length 0:00:01.00
Peak level 100.0 %
Extraction speed 7.8 X
Track quality 100.0 %
Test CRC B50BC341
Copy CRC B50BC341
Copy OK
Track 9
Filename D:\EAC\09 Websterisms.wav
Pre-gap length 0:00:02.00
Peak level 100.0 %
Extraction speed 8.0 X
Track quality 100.0 %
Test CRC 3B0EC593
Copy CRC 3B0EC593
Copy OK
No errors occurred
End of status report
==== Log checksum 98C9CE8C8A84893D3C0D1B7D29651DA4F1A6C48D0B4A1BF31C499A52CBE6D40C ====
 
Содержание индексной карты (.CUE)
REM GENRE Jazz
REM DATE 2013
REM DISCID 6C09DF09
REM COMMENT "ExactAudioCopy v1.0b3"
PERFORMER "Ivo Perelman, Matt Shipp, Michael Bisio, Whit Dickey"
TITLE "The Edge"
FILE "01 Clarinblasen.wav" WAVE
TRACK 01 AUDIO
TITLE "Clarinblasen"
PERFORMER "Ivo Perelman, Matt Shipp, Michael Bisio, Whit Dickey"
FLAGS DCP
INDEX 01 00:00:00
TRACK 02 AUDIO
TITLE "Lancaster"
PERFORMER "Ivo Perelman, Matt Shipp, Michael Bisio, Whit Dickey"
FLAGS DCP
INDEX 00 05:54:40
FILE "02 Lancaster.wav" WAVE
INDEX 01 00:00:00
TRACK 03 AUDIO
TITLE "Epigraph"
PERFORMER "Ivo Perelman, Matt Shipp, Michael Bisio, Whit Dickey"
FLAGS DCP
INDEX 00 06:11:72
FILE "03 Epigraph.wav" WAVE
INDEX 01 00:00:00
TRACK 04 AUDIO
TITLE "The Edge"
PERFORMER "Ivo Perelman, Matt Shipp, Michael Bisio, Whit Dickey"
FLAGS DCP
INDEX 00 01:06:16
FILE "04 The Edge.wav" WAVE
INDEX 01 00:00:00
TRACK 05 AUDIO
TITLE "Zapotecs"
PERFORMER "Ivo Perelman, Matt Shipp, Michael Bisio, Whit Dickey"
FLAGS DCP
INDEX 00 05:34:74
FILE "05 Zapotecs.wav" WAVE
INDEX 01 00:00:00
TRACK 06 AUDIO
TITLE "Fatal Thorns"
PERFORMER "Ivo Perelman, Matt Shipp, Michael Bisio, Whit Dickey"
FLAGS DCP
INDEX 00 01:48:10
FILE "06 Fatal Thorns.wav" WAVE
INDEX 01 00:00:00
TRACK 07 AUDIO
TITLE "Interlude"
PERFORMER "Ivo Perelman, Matt Shipp, Michael Bisio, Whit Dickey"
FLAGS DCP
INDEX 00 05:35:17
FILE "07 Interlude.wav" WAVE
INDEX 01 00:00:00
TRACK 08 AUDIO
TITLE "Volcanic"
PERFORMER "Ivo Perelman, Matt Shipp, Michael Bisio, Whit Dickey"
FLAGS DCP
INDEX 00 00:42:72
FILE "08 Volcanic.wav" WAVE
INDEX 01 00:00:00
TRACK 09 AUDIO
TITLE "Websterisms"
PERFORMER "Ivo Perelman, Matt Shipp, Michael Bisio, Whit Dickey"
FLAGS DCP
INDEX 00 09:41:13
FILE "09 Websterisms.wav" WAVE
INDEX 01 00:00:00
Доп. информация: Recorded, mixed and mastered at Parkwest studios, Brooklyn, NY, June 2012
 
Об альбоме (сборнике)
"One of today's most prolific and adventurous tenor saxophonists. A master of extended techniques with a robust tone, his supple embouchure and intrepid virtuosity facilitates a wide range of expression - from altissimo glissandi and flutter-tongued chromatics to percussive slap-tongue and staccato split-tones - all seamlessly integrated into tortuous motifs....majestic ...sensitive romanticism ...hearty, abstract lyricism ...epic, stream of consciousness cadences" All About Jazz. "...the most intense, disturbing, tormenting sax player alive."- Françoise Couture
 
Состав
Bass – Michael Bisio
Drums – Whit Dickey
Piano – Matt Shipp
Tenor Saxophone – Ivo Perelman
По всем вопросам пишите личное сообщение пользователю M0p94ok.
08:35
141
Нет комментариев. Ваш будет первым!