Вы используете незарегистрированную версию компонента "Вкладки"!

Поиск

(Free Jazz) [CD] Ivo Perelman, Gerry Hemingway - The Apple In The Dark - 2010, FLAC (image+.cue), lossless

(Free Jazz) [CD] Ivo Perelman, Gerry Hemingway - The Apple In The Dark - 2010, FLAC (image+.cue), lossless
Треклист:
Ivo Perelman, Gerry Hemingway / The Apple In The Dark
Жанр: Free Jazz
Носитель: CD
Страна-производитель диска (релиза): UK
Год издания: 2010
Издатель (лейбл): Leo
Номер по каталогу: CD LR 569
Аудиокодек: FLAC (*.flac)
Тип рипа: image+.cue
Битрейт аудио: lossless
Продолжительность: 1:03:37
Источник (релизер): gssmg7
Наличие сканов в содержимом раздачи: да
Треклист:
01. The Apple In The Dark (3:57)
02. Lispector (3:37)
03. A Maca No Escuro (4:10)
04. Sinful (9:22)
05. Vicious Circle (4:30)
06. The Path (11:58)
07. Green Settings (6:32)
08. Wrestling (4:00)
09. Indulgences (7:22)
10. Lisboa (7:40)
 
Лог создания рипа
Exact Audio Copy V1.0 beta 2 from 29. April 2011
EAC extraction logfile from 17. March 2015, 23:18
Ivo Perelman, Gerry Hemingway / The Apple In The Dark
Used drive : Optiarc DVD RW AD-5280S Adapter: 1 ID: 1
Read mode : Secure
Utilize accurate stream : Yes
Defeat audio cache : Yes
Make use of C2 pointers : No
Read offset correction : 48
Overread into Lead-In and Lead-Out : No
Fill up missing offset samples with silence : Yes
Delete leading and trailing silent blocks : No
Null samples used in CRC calculations : Yes
Used interface : Installed external ASPI interface
Used output format : User Defined Encoder
Selected bitrate : 128 kBit/s
Quality : High
Add ID3 tag : No
Command line compressor : C:\Program Files\FLAC\flac.exe
Additional command line options : -V -8 -T "Genre=%genre%" -T "Artist=%artist%" -T "Title=%title%" -T "Album=%albumtitle%" -T "Date=%year%" -T "Tracknumber=%tracknr%" -T "Comment=%comment%" %source%
TOC of the extracted CD
Track | Start | Length | Start sector | End sector
---------------------------------------------------------
1 | 0:00.00 | 3:59.68 | 0 | 17992
2 | 3:59.68 | 3:40.10 | 17993 | 34502
3 | 7:40.03 | 4:13.45 | 34503 | 53522
4 | 11:53.48 | 9:24.70 | 53523 | 95892
5 | 21:18.43 | 4:33.12 | 95893 | 116379
6 | 25:51.55 | 12:00.47 | 116380 | 170426
7 | 37:52.27 | 6:34.69 | 170427 | 200045
8 | 44:27.21 | 4:03.40 | 200046 | 218310
9 | 48:30.61 | 7:24.51 | 218311 | 251661
10 | 55:55.37 | 7:41.60 | 251662 | 286296
Range status and errors
Selected range
Filename C:\Ivo Perelman, Gerry Hemingway - The Apple In The Dark\Ivo Perelman, Gerry Hemingway - The Apple In The Dark.wav
Peak level 100.0 %
Extraction speed 7.7 X
Range quality 100.0 %
Test CRC DFECE977
Copy CRC DFECE977
Copy OK
No errors occurred
AccurateRip summary
Track 1 accurately ripped (confidence 1) [920E100D] (AR v2)
Track 2 accurately ripped (confidence 1) [6009924F] (AR v2)
Track 3 accurately ripped (confidence 1) [8280797F] (AR v2)
Track 4 accurately ripped (confidence 1) [2D00AE89] (AR v2)
Track 5 accurately ripped (confidence 1) [89597F22] (AR v2)
Track 6 accurately ripped (confidence 1) [FAE76146] (AR v2)
Track 7 accurately ripped (confidence 1) [FB343CD5] (AR v2)
Track 8 accurately ripped (confidence 1) [E685455E] (AR v2)
Track 9 accurately ripped (confidence 1) [96F1679F] (AR v2)
Track 10 accurately ripped (confidence 1) [55A41C2D] (AR v2)
All tracks accurately ripped
End of status report
==== Log checksum 07F448728E8D4E164FD670D511ACF100C62FA853B3F23FD9068B969085C64326 ====
 
Содержание индексной карты (.CUE)
REM GENRE Jazz
REM DATE 2010
REM DISCID 810EE90A
REM COMMENT "ExactAudioCopy v1.0b2"
PERFORMER "Ivo Perelman, Gerry Hemingway"
TITLE "The Apple In The Dark"
FILE "Ivo Perelman, Gerry Hemingway - The Apple In The Dark.flac" WAVE
TRACK 01 AUDIO
TITLE "The Apple In The Dark"
PERFORMER "Ivo Perelman, Gerry Hemingway"
FLAGS DCP
INDEX 01 00:00:00
TRACK 02 AUDIO
TITLE "Lispector"
PERFORMER "Ivo Perelman, Gerry Hemingway"
FLAGS DCP
INDEX 00 03:57:68
INDEX 01 03:59:68
TRACK 03 AUDIO
TITLE "A Maca No Escuro"
PERFORMER "Ivo Perelman, Gerry Hemingway"
FLAGS DCP
INDEX 00 07:37:40
INDEX 01 07:40:03
TRACK 04 AUDIO
TITLE "Sinful"
PERFORMER "Ivo Perelman, Gerry Hemingway"
FLAGS DCP
INDEX 00 11:51:10
INDEX 01 11:53:48
TRACK 05 AUDIO
TITLE "Vicious Circle"
PERFORMER "Ivo Perelman, Gerry Hemingway"
FLAGS DCP
INDEX 00 21:16:43
INDEX 01 21:18:43
TRACK 06 AUDIO
TITLE "The Path"
PERFORMER "Ivo Perelman, Gerry Hemingway"
FLAGS DCP
INDEX 00 25:49:55
INDEX 01 25:51:55
TRACK 07 AUDIO
TITLE "Green Settings"
PERFORMER "Ivo Perelman, Gerry Hemingway"
FLAGS DCP
INDEX 00 37:50:27
INDEX 01 37:52:27
TRACK 08 AUDIO
TITLE "Wrestling"
PERFORMER "Ivo Perelman, Gerry Hemingway"
FLAGS DCP
INDEX 00 44:25:21
INDEX 01 44:27:21
TRACK 09 AUDIO
TITLE "Indulgences"
PERFORMER "Ivo Perelman, Gerry Hemingway"
FLAGS DCP
INDEX 00 48:28:61
INDEX 01 48:30:61
TRACK 10 AUDIO
TITLE "Lisboa"
PERFORMER "Ivo Perelman, Gerry Hemingway"
FLAGS DCP
INDEX 00 55:53:37
INDEX 01 55:55:37
 
Доп. информация
Recorded in February 2010 at Parkwest Studios, Brooklyn, New York
Except Piano Tracks Recorded at Hillside Studios, Englewood, Nj.
 
Об альбоме (сборнике)
This duo album by extremely prolific Brazilian saxophonist, pianist, and painter Ivo Perelman features him in sweaty interaction with veteran out-jazz drummer Gerry Hemingway, and if it lacks the religious abandon of the John Coltrane/Rashied Ali duets on Interstellar Space, or the blow-the-walls-down fury of some of Peter Brötzmann's duo sessions, it's still an extremely energized, compelling record that could easily serve as an introduction to Perelman's work. When he blows, he's channeling Ayler, Shepp, Sanders, and other prominent players of the '60s; when he plays the piano, his closest analogue is Matthew Shipp, combining free ecstasy with rigorous discipline of thought, but it's the Matthew Shipp of the early '90s, as heard on albums like Circular Temple and Critical Mass, that Perelman is channeling. And that's ultimately his greatest limitation as a player, and the reason he's never advanced beyond cult status despite releasing dozens of albums over the last 20 years -- his vision remains bound to the free jazz of the 1990s, and hasn't embraced any of the changes in the music over the past two decades, whether it be extended techniques beyond the shrieking and squawking that David S. Ware and Charles Gayle specialized in, or the use of electronic instruments -- Perelman is yesterday's man, and while there's some excellent playing on this album, it feels out of date and nonessential. ~ phil freeman, allmusic.com
Althouth Perelman played cello, piano and trombone in his youth, he mostly stuck to the sax during his recording career. Yet here he plays the piano too, and to my knowledge the first time ever on record, but I may be wrong of course. His sparring partner is Gerry Hemingway and with great success. The first attack on the first piece is immediately powerful and formidable, as is Hemingway's reaction to it - abstract violence, full of raw energy, but then he switches to piano, first solo, in a quite abstract romanticism, then in duo with Hemingway. The piano-playing, although nice by itself, does not offer Perelman the same power and nuance as he manages on tenor, yet it gives the album the necessary variation. Over the ten tracks, Perelman switches between piano and sax, changing intensity and levels of abstraction. The album is a reference to Brazilian author Clarice Lispector, whose novel "The Apple In The Dark", gives an interior dialogue of a murderer. The novel is also modernistic in its attempt to demonstrate the limitations of language to convey this deep reality without words. Perelman's and Hemingway's take at this is not bad at all. The album sounds fresh and lively, and despite its intellectual subject, they do not fall into the trap of evoking the novel itself. And I like his approach to piano. ~ stef, freejazzblog.org
 
Состав
Gerry Hemingway - drums
Ivo Perelman - tenor saxophone, piano
По всем вопросам пишите личное сообщение пользователю M0p94ok.
10:19
231
Нет комментариев. Ваш будет первым!