Поиск

(Free Jazz) [CD] Eyolf Dale - Wolf Valley - 2016, FLAC (tracks+.cue), lossless

(Free Jazz) [CD] Eyolf Dale - Wolf Valley - 2016, FLAC (tracks+.cue), lossless
Треклист:
Eyolf Dale - Wolf Valley Жанр: Free Jazz
Носитель: CD
Год издания: 2016
Издатель (лейбл): Edition Records
Номер по каталогу: EDN1073
Аудиокодек: FLAC (*.flac)
Тип рипа: tracks+.cue
Битрейт аудио: lossless
Продолжительность: 51:26
Rip by dtromp
Наличие сканов в содержимом раздачи: да
Треклист:
01. Furet (5:13)
02. Fernanda (6:02)
03. Shostachoral (5:55)
04. Ban Joe (7:11)
05. Sideways (6:42)
06. Teglstein (3:23)
07. The Creek (6:28)
08. Silent Ways (6:31)
09. The Walk (4:01)
Personnel:
Eyolf Dale - piano
André Roligheten - tenor sax, clarinet
Hayden Powell - trumpet
Kristoffer Kompen - trombone
Rob Waring - vibraphone
Adrian Løseth Waade - violin
Per Zanussi - bass, saw
Gard Nilssen - drums
 
 
Лог создания рипа
Exact Audio Copy V1.3 from 2. September 2016
EAC extraction logfile from 22. October 2016, 15:01
Eyolf Dale / Wolf Valley
Used drive : ATAPI iHBS112 2 Adapter: 1 ID: 1
Read mode : Secure
Utilize accurate stream : Yes
Defeat audio cache : Yes
Make use of C2 pointers : No
Read offset correction : 6
Overread into Lead-In and Lead-Out : No
Fill up missing offset samples with silence : Yes
Delete leading and trailing silent blocks : No
Null samples used in CRC calculations : Yes
Used interface : Native Win32 interface for Win NT & 2000
Gap handling : Appended to previous track
Used output format : User Defined Encoder
Selected bitrate : 128 kBit/s
Quality : High
Add ID3 tag : No
Command line compressor : C:\Program Files (x86)\Exact Audio Copy\Flac\flac.exe
Additional command line options : -8 -V -T "ARTIST=%artist%" -T "TITLE=%title%" -T "ALBUM=%albumtitle%" -T "DATE=%year%" -T "TRACKNUMBER=%tracknr%" -T "GENRE=%genre%" -T "PERFORMER=%albuminterpret%" -T "COMPOSER=%composer%" -T "ALBUMARTIST=%albumartist%" -T "DISCNUMBER=%cdnumber%" -T "TOTALDISCS=%totalcds%" -T "TOTALTRACKS=%numtracks%" -T "COMMENT=EAC Secure Mode, Test & Copy, AccurateRip, FLAC -8" %source% -o %dest%
TOC of the extracted CD
Track | Start | Length | Start sector | End sector
---------------------------------------------------------
1 | 0:00.00 | 5:13.12 | 0 | 23486
2 | 5:13.12 | 6:02.35 | 23487 | 50671
3 | 11:15.47 | 5:54.64 | 50672 | 77285
4 | 17:10.36 | 7:11.21 | 77286 | 109631
5 | 24:21.57 | 6:41.52 | 109632 | 139758
6 | 31:03.34 | 3:23.03 | 139759 | 154986
7 | 34:26.37 | 6:27.58 | 154987 | 184069
8 | 40:54.20 | 6:31.00 | 184070 | 213394
9 | 47:25.20 | 4:01.16 | 213395 | 231485
Track 1
Filename D:\DL\Eyolf Dale - Wolf Valley (2016) [FLAC] {Edition Records EDN1073}\01 - Furet.wav
Pre-gap length 0:00:02.00
Peak level 86.3 %
Extraction speed 5.3 X
Track quality 100.0 %
Test CRC 13B850A9
Copy CRC 13B850A9
Accurately ripped (confidence 2) [64616181] (AR v2)
Copy OK
Track 2
Filename D:\DL\Eyolf Dale - Wolf Valley (2016) [FLAC] {Edition Records EDN1073}\02 - Fernanda.wav
Peak level 92.7 %
Extraction speed 6.2 X
Track quality 100.0 %
Test CRC 2724563A
Copy CRC 2724563A
Accurately ripped (confidence 2) [64FC67F8] (AR v2)
Copy OK
Track 3
Filename D:\DL\Eyolf Dale - Wolf Valley (2016) [FLAC] {Edition Records EDN1073}\03 - Shostachoral.wav
Peak level 88.0 %
Extraction speed 6.9 X
Track quality 100.0 %
Test CRC ACFBE25F
Copy CRC ACFBE25F
Accurately ripped (confidence 2) [BBDF1AFA] (AR v2)
Copy OK
Track 4
Filename D:\DL\Eyolf Dale - Wolf Valley (2016) [FLAC] {Edition Records EDN1073}\04 - Ban Joe.wav
Peak level 90.5 %
Extraction speed 7.0 X
Track quality 99.9 %
Test CRC 38D16C5B
Copy CRC 38D16C5B
Accurately ripped (confidence 2) [F5086807] (AR v2)
Copy OK
Track 5
Filename D:\DL\Eyolf Dale - Wolf Valley (2016) [FLAC] {Edition Records EDN1073}\05 - Sideways.wav
Peak level 90.9 %
Extraction speed 7.4 X
Track quality 99.9 %
Test CRC F0B9EB30
Copy CRC F0B9EB30
Accurately ripped (confidence 2) [1FF27265] (AR v2)
Copy OK
Track 6
Filename D:\DL\Eyolf Dale - Wolf Valley (2016) [FLAC] {Edition Records EDN1073}\06 - Teglstein.wav
Pre-gap length 0:00:00.56
Peak level 84.4 %
Extraction speed 8.1 X
Track quality 100.0 %
Test CRC A5EC81A8
Copy CRC A5EC81A8
Accurately ripped (confidence 2) [837BBC50] (AR v2)
Copy OK
Track 7
Filename D:\DL\Eyolf Dale - Wolf Valley (2016) [FLAC] {Edition Records EDN1073}\07 - The Creek.wav
Peak level 92.2 %
Extraction speed 8.1 X
Track quality 99.9 %
Test CRC 0C277EF5
Copy CRC 0C277EF5
Accurately ripped (confidence 2) [57EBC172] (AR v2)
Copy OK
Track 8
Filename D:\DL\Eyolf Dale - Wolf Valley (2016) [FLAC] {Edition Records EDN1073}\08 - Silent Ways.wav
Peak level 80.8 %
Extraction speed 9.7 X
Track quality 100.0 %
Test CRC 8D974FA8
Copy CRC 8D974FA8
Accurately ripped (confidence 2) [20B073A1] (AR v2)
Copy OK
Track 9
Filename D:\DL\Eyolf Dale - Wolf Valley (2016) [FLAC] {Edition Records EDN1073}\09 - The Walk.wav
Pre-gap length 0:00:01.41
Peak level 92.4 %
Extraction speed 9.5 X
Track quality 100.0 %
Test CRC F2DD396D
Copy CRC F2DD396D
Accurately ripped (confidence 2) [2418A6F6] (AR v2)
Copy OK
All tracks accurately ripped
No errors occurred
End of status report
---- CUETools DB Plugin V2.1.6
[CTDB TOCID: QvRLvQJvpwKeZ8._khCqA_o2M4Q-] found
Submit result: QvRLvQJvpwKeZ8._khCqA_o2M4Q- has been confirmed
Track | CTDB Status
1 | (1/1) Accurately ripped
2 | (1/1) Accurately ripped
3 | (1/1) Accurately ripped
4 | (1/1) Accurately ripped
5 | (1/1) Accurately ripped
6 | (1/1) Accurately ripped
7 | (1/1) Accurately ripped
8 | (1/1) Accurately ripped
9 | (1/1) Accurately ripped
==== Log checksum F91972B0A915B45AA2AFF703E26945024F6021AFC27DCE79F667C3BB2F2C7E0D ====
 
Содержание индексной карты (.CUE)
REM GENRE Jazz
REM DATE 2016
REM DISCID 7D0C0E09
REM COMMENT "ExactAudioCopy v1.3"
PERFORMER "Eyolf Dale"
TITLE "Wolf Valley"
FILE "01 - Furet.wav" WAVE
TRACK 01 AUDIO
TITLE "Furet"
PERFORMER "Eyolf Dale"
INDEX 01 00:00:00
FILE "02 - Fernanda.wav" WAVE
TRACK 02 AUDIO
TITLE "Fernanda"
PERFORMER "Eyolf Dale"
INDEX 01 00:00:00
FILE "03 - Shostachoral.wav" WAVE
TRACK 03 AUDIO
TITLE "Shostachoral"
PERFORMER "Eyolf Dale"
INDEX 01 00:00:00
FILE "04 - Ban Joe.wav" WAVE
TRACK 04 AUDIO
TITLE "Ban Joe"
PERFORMER "Eyolf Dale"
INDEX 01 00:00:00
FILE "05 - Sideways.wav" WAVE
TRACK 05 AUDIO
TITLE "Sideways"
PERFORMER "Eyolf Dale"
INDEX 01 00:00:00
TRACK 06 AUDIO
TITLE "Teglstein"
PERFORMER "Eyolf Dale"
INDEX 00 06:40:71
FILE "06 - Teglstein.wav" WAVE
INDEX 01 00:00:00
FILE "07 - The Creek.wav" WAVE
TRACK 07 AUDIO
TITLE "The Creek"
PERFORMER "Eyolf Dale"
INDEX 01 00:00:00
FILE "08 - Silent Ways.wav" WAVE
TRACK 08 AUDIO
TITLE "Silent Ways"
PERFORMER "Eyolf Dale"
INDEX 01 00:00:00
TRACK 09 AUDIO
TITLE "The Walk"
PERFORMER "Eyolf Dale"
INDEX 00 06:29:34
FILE "09 - The Walk.wav" WAVE
INDEX 01 00:00:00
21:08
271
Нет комментариев. Ваш будет первым!