Вы используете незарегистрированную версию компонента "Вкладки"!

Поиск

(free jazz) [CD] Alan Silva And Oluyemi Thomas - Transmission (1999), FLAC (tracks+.cue), lossless

(free jazz) [CD] Alan Silva And Oluyemi Thomas - Transmission (1999), FLAC (tracks+.cue), lossless
Треклист:


Alan Silva And Oluyemi Thomas - Transmission (1999)

Жанр:free jazz
Год выпуска: 1999
Издатель (лейбл):Eremite Records
Формат: FLAC (tracks+.cue)
Битрейт аудио: lossless
Продолжительность 50`39
Источник: what.cd, Eremite Records
alan silva double bass
oluyemi thomas bass clarinet, c-melody saxophone, wooden flute, percussion
recorded 16 october, 1999, unitarian meetinghouse, amherst, massachusetts.

tracks
1. connecting with the divine (16:20)
2. lofty flight (12:30)
3. root & branch (11:49)
4. offering to the exalted one (05:25)
5. soft flowing waters (04:35)


 
.log
EAC extraction logfile from 11. May 2007, 20:48 for CD
Alan Silva And Oluyemi Thomas / Transmission
Used drive : LITE-ON LTR-52327S Adapter: 1 ID: 0
Read mode : Secure with NO C2, accurate stream, disable cache
Read offset correction : 48
Overread into Lead-In and Lead-Out : No
Used output format : Internal WAV Routines
44.100 Hz; 16 Bit; Stereo
Other options :
Fill up missing offset samples with silence : Yes
Delete leading and trailing silent blocks : No
Native Win32 interface for Win NT & 2000
Track 1
Filename E:\New Rip\Alan Silva And Oluyemi Thomas - Transmission\01 - connecting with the divine.wav
Pre-gap length 0:00:02.00
Peak level 96.5 %
Track quality 100.0 %
Test CRC 9229CA1F
Copy CRC 9229CA1F
Copy OK
Track 2
Filename E:\New Rip\Alan Silva And Oluyemi Thomas - Transmission\02 - lofty flight.wav
Peak level 96.8 %
Track quality 99.9 %
Test CRC E7DD370D
Copy CRC E7DD370D
Copy OK
Track 3
Filename E:\New Rip\Alan Silva And Oluyemi Thomas - Transmission\03 - root & branch.wav
Peak level 97.0 %
Track quality 100.0 %
Test CRC 242DC8ED
Copy CRC 242DC8ED
Copy OK
Track 4
Filename E:\New Rip\Alan Silva And Oluyemi Thomas - Transmission\04 - offering to the exalted one.wav
Peak level 71.9 %
Track quality 100.0 %
Test CRC BECC60F7
Copy CRC BECC60F7
Copy OK
Track 5
Filename E:\New Rip\Alan Silva And Oluyemi Thomas - Transmission\05 - soft flowing waters.wav
Pre-gap length 0:00:00.01
Peak level 96.5 %
Track quality 99.9 %
Test CRC 6839A650
Copy CRC 6839A650
Copy OK
No errors occured
End of status report
 
.cue
REM GENRE Jazz
REM DATE 1999
REM DISCID 420BDF05
REM COMMENT "ExactAudioCopy v0.95b3"
PERFORMER "Alan Silva And Oluyemi Thomas"
TITLE "Transmission"
FILE "01 - connecting with the divine.wav" WAVE
TRACK 01 AUDIO
TITLE "connecting with the divine"
PERFORMER "Alan Silva And Oluyemi Thomas"
FLAGS DCP
INDEX 01 00:00:00
FILE "02 - lofty flight.wav" WAVE
TRACK 02 AUDIO
TITLE "lofty flight"
PERFORMER "Alan Silva And Oluyemi Thomas"
FLAGS DCP
INDEX 01 00:00:00
FILE "03 - root & branch.wav" WAVE
TRACK 03 AUDIO
TITLE "root & branch"
PERFORMER "Alan Silva And Oluyemi Thomas"
FLAGS DCP
INDEX 01 00:00:00
FILE "04 - offering to the exalted one.wav" WAVE
TRACK 04 AUDIO
TITLE "offering to the exalted one"
PERFORMER "Alan Silva And Oluyemi Thomas"
FLAGS DCP
INDEX 01 00:00:00
TRACK 05 AUDIO
TITLE "soft flowing waters "
PERFORMER "Alan Silva And Oluyemi Thomas"
FLAGS DCP
INDEX 00 05:24:37
FILE "05 - soft flowing waters.wav" WAVE
INDEX 01 00:00:00
 
.accurip
[CUETools log; Date: 25/03/14 02:31:33; Version: 2.1.4]
[CTDB TOCID: qmUbTK_a8L9psvnWqxMKoNhZBEw-] disk not present in database.
[AccurateRip ID: 000c8940-003809e0-420bdf05] found.
Track [ CRC | V2 ] Status
01 [7a1b937c|beba1135] (0+0/3) No match
02 [3a558ce8|3b50237b] (0+0/3) No match
03 [ad28b10c|49d66786] (0+0/3) No match
04 [c102f542|6c170f5a] (0+0/3) No match
05 [2df79f8a|bcd046ff] (0+0/3) No match
Offsetted by -42:
01 [bbb9f5f6] (3/3) Accurately ripped
02 [daf09db0] (3/3) Accurately ripped
03 [d48eec1e] (3/3) Accurately ripped
04 [51eb53a5] (3/3) Accurately ripped
05 [e212e367] (3/3) Accurately ripped
Track Peak [ CRC32 ] [W/O NULL] [ LOG ]
-- 97.0 [B4609370] [DF8B9668]
01 96.5 [9229CA1F] [2CDC9AEB] CRC32
02 96.8 [E7DD370D] [EFCD16B7] CRC32
03 97.0 [242DC8ED] [5B30F676] CRC32
04 71.9 [BECC60F7] [962CFC53] CRC32
05 96.5 [6839A650] [3F15D145] CRC32

другие релизы
По всем вопросам пишите личное сообщение пользователю M0p94ok.
00:35
297
Нет комментариев. Ваш будет первым!