Вы используете незарегистрированную версию компонента "Вкладки"!

Поиск

(Free Jazz) [CD] Actis Furioso - 2 (Carlo Actis Dato, Matteo Ravizza, Massimo Rossi, Beppe Di Filippo, Gianpiero Malfatto, Enrico Negro, Ivano Perino, Daniele Bertone, Ferdinando Despaigne) - World People - 2008, FLAC (tracks+.cue), lossless

(Free Jazz) [CD] Actis Furioso - 2 (Carlo Actis Dato, Matteo Ravizza, Massimo Rossi, Beppe Di Filippo, Gianpiero Malfatto, Enrico Negro, Ivano Perino, Daniele Bertone, Ferdinando Despaigne) - World People - 2008, FLAC (tracks+.cue), lossless
Треклист:
Actis Furioso - 2 / World People
Жанр: Free Jazz
Носитель: CD
Страна-производитель диска (релиза): UK
Год издания: 2008
Издатель (лейбл): Leo Records
Номер по каталогу: CD LR 510
Аудиокодек: FLAC (*.flac)
Тип рипа: tracks+.cue
Битрейт аудио: lossless
Продолжительность: 73:33
Источник (релизер): cd
Наличие сканов в содержимом раздачи: нет
Треклист:
1. Here We Are 9:27
2. Morto Che Parla 9:35
3. Bella Ciao! 10:02
4. No Visa 10:26
5. Desaparecidos 5:54
6. Angola 11:43
7. Immigrati 16:24
 
Лог создания рипа
Exact Audio Copy V1.0 beta 3 from 29. August 2011
EAC extraction logfile from 21. April 2015, 9:10
Actis Furioso-2 / World People
Used drive : ASUS DRW-24F1ST a Adapter: 0 ID: 0
Read mode : Secure
Utilize accurate stream : Yes
Defeat audio cache : Yes
Make use of C2 pointers : No
Read offset correction : 6
Overread into Lead-In and Lead-Out : No
Fill up missing offset samples with silence : Yes
Delete leading and trailing silent blocks : No
Null samples used in CRC calculations : Yes
Used interface : Native Win32 interface for Win NT & 2000
Gap handling : Appended to previous track
Used output format : User Defined Encoder
Selected bitrate : 320 kBit/s
Quality : High
Add ID3 tag : No
Command line compressor : D:\Programs\Exact Audio Copy\Flac\flac.exe
Additional command line options : -V -8 -T "Genre=%genre%" -T "Artist=%artist%" -T "Title=%title%" -T "Album=%albumtitle%" -T "Date=%year%" -T "Tracknumber=%tracknr%" -T "Comment=%comment%" %source%
TOC of the extracted CD
Track | Start | Length | Start sector | End sector
---------------------------------------------------------
1 | 0:00.00 | 9:27.49 | 0 | 42573
2 | 9:27.49 | 9:35.04 | 42574 | 85702
3 | 19:02.53 | 10:02.02 | 85703 | 130854
4 | 29:04.55 | 10:26.51 | 130855 | 177855
5 | 39:31.31 | 5:54.08 | 177856 | 204413
6 | 45:25.39 | 11:43.59 | 204414 | 257197
7 | 57:09.23 | 16:24.08 | 257198 | 331005
Track 1
Filename D:\EAC\01 Here We Are.wav
Pre-gap length 0:00:02.00
Peak level 98.8 %
Extraction speed 2.1 X
Track quality 100.0 %
Test CRC D8216F7B
Copy CRC D8216F7B
Copy OK
Track 2
Filename D:\EAC\02 Morto Che Parla.wav
Pre-gap length 0:00:02.00
Peak level 98.8 %
Extraction speed 2.5 X
Track quality 100.0 %
Test CRC 57836AC1
Copy CRC 57836AC1
Copy OK
Track 3
Filename D:\EAC\03 Bella Ciao.wav
Pre-gap length 0:00:02.00
Peak level 98.8 %
Extraction speed 2.9 X
Track quality 100.0 %
Test CRC 80C75776
Copy CRC 80C75776
Copy OK
Track 4
Filename D:\EAC\04 No Visa.wav
Pre-gap length 0:00:02.00
Peak level 98.8 %
Extraction speed 3.2 X
Track quality 100.0 %
Test CRC 9F3BEB5D
Copy CRC 9F3BEB5D
Copy OK
Track 5
Filename D:\EAC\05 Desaparecidos.wav
Pre-gap length 0:00:02.00
Peak level 98.8 %
Extraction speed 3.3 X
Track quality 100.0 %
Test CRC 3E437E51
Copy CRC 3E437E51
Copy OK
Track 6
Filename D:\EAC\06 Angola.wav
Pre-gap length 0:00:02.00
Peak level 98.8 %
Extraction speed 3.7 X
Track quality 100.0 %
Test CRC E4505B92
Copy CRC E4505B92
Copy OK
Track 7
Filename D:\EAC\07 Immigrati.wav
Pre-gap length 0:00:02.00
Peak level 98.8 %
Extraction speed 4.1 X
Track quality 100.0 %
Test CRC F3EE3319
Copy CRC F3EE3319
Copy OK
No errors occurred
End of status report
==== Log checksum B852B56D9172B37E9F90C54B0CC91D9C3168F3E39B96157B16019223EE259AE5 ====
 
Содержание индексной карты (.CUE)
REM GENRE Jazz
REM DATE 2008
REM DISCID 5E113D07
REM COMMENT "ExactAudioCopy v1.0b3"
PERFORMER "Actis Furioso-2"
TITLE "World People "
FILE "01 Here We Are.wav" WAVE
TRACK 01 AUDIO
TITLE "Here We Are"
PERFORMER "Actis Furioso-2"
FLAGS DCP
INDEX 01 00:00:00
TRACK 02 AUDIO
TITLE "Morto Che Parla"
PERFORMER "Actis Furioso-2"
FLAGS DCP
INDEX 00 09:25:49
FILE "02 Morto Che Parla.wav" WAVE
INDEX 01 00:00:00
TRACK 03 AUDIO
TITLE "Bella Ciao"
PERFORMER "Actis Furioso-2"
FLAGS DCP
INDEX 00 09:33:04
FILE "03 Bella Ciao.wav" WAVE
INDEX 01 00:00:00
TRACK 04 AUDIO
TITLE "No Visa"
PERFORMER "Actis Furioso-2"
FLAGS DCP
INDEX 00 10:00:02
FILE "04 No Visa.wav" WAVE
INDEX 01 00:00:00
TRACK 05 AUDIO
TITLE "Desaparecidos"
PERFORMER "Actis Furioso-2"
FLAGS DCP
INDEX 00 10:24:51
FILE "05 Desaparecidos.wav" WAVE
INDEX 01 00:00:00
TRACK 06 AUDIO
TITLE "Angola"
PERFORMER "Actis Furioso-2"
FLAGS DCP
INDEX 00 05:52:08
FILE "06 Angola.wav" WAVE
INDEX 01 00:00:00
TRACK 07 AUDIO
TITLE "Immigrati"
PERFORMER "Actis Furioso-2"
FLAGS DCP
INDEX 00 11:41:59
FILE "07 Immigrati.wav" WAVE
INDEX 01 00:00:00
Доп. информация: Recorded live in "Saluggiaman Studio Recording" Saluggia, Italy on February 15, 16 & 17, 2008
 
Об альбоме (сборнике)
Carlo Actis Dato is a restless spirit. The composer, arranger and virtuoso of the baritone saxophone and bass clarinet is a traveler who picks up music and all of its nuances from different parts of the world. He brings this to bear in his compositions as he adds his unique vision and imagination to open a wide panorama filled with startling motifs and dynamics. Invention and surprise are the cogs around which he spins his web, drawing the listener into a whirlpool of free jazz, big band swing and folk music, all wrapped in a joyous buoyancy.
Actis Dato has a new version of Actis Furioso for World People. As with the earlier conglomerate, all of the members fit in well to give the music a deep dimension and impact. One can not presage the direction the music will take; the band is as apt to swing as to billow free phrases or march in tandem. Discovery is delightful indeed.
Fanfare from the baritone sax heralds the funeral march "Morto Che Para." It is all so solemn until the music cavorts with the horns singing the melody and Beppe Di Filippo undulating on the tenor sax. Actis Dato shows his wicked wit as folk music swings in, quite in contrast to the sentiment of the composition, which translates to "the dead speaking." He brings it all back home with a sedate tempo into which wriggle a few free phrases. The changes certainly rivet and show how various strands can be woven into one compelling whole.
Actis Dato's music is staunched by his non-conformist approach, with a flair for turning in extraordinary manifestations of idioms. His "No Visa" is a happy hunting ground and, once again, the music is ebullient into which he injects torqued bolts of free jazz in neat juxtaposition. He comes in on the baritone and leads the band into a swinging jaunt. The move between the idioms is seamless, testifying to the chemistry between the band members, without which the music would be the lesser.
The pace is slowed down for "Desaparecidos." Actis Dato brings in a poignant air on the bass clarinet. The melody is stunning and given such an elegant presence, stays within the initial parameters. Ivano Perino and Enrico Negro on trumpets and Gianpiero Malfatto are the progenitors of excellence along with Actis Dato.
Music is meant to charm and stimulate the listener. This CD does it in spades.
 
Состав
Baritone Saxophone, Composed By – Carlo Actis Dato
Bass – Matteo Ravizza
Drums – Daniele Bertone
Percussion – Ferdinando Despaigne
Soprano Saxophone, Alto Saxophone – Massimo Rossi
Soprano Saxophone, Alto Saxophone, Tenor Saxophone – Beppe Di Filippo
Trombone – Gianpiero Malfatto
Trumpet – Enrico Negro, Ivano Perino
По всем вопросам пишите личное сообщение пользователю M0p94ok.
11:13
228
Нет комментариев. Ваш будет первым!