Вы используете незарегистрированную версию компонента "Вкладки"!

Поиск

(free jazz) Carlos Barretto Trio, Louis Sclavis - Radio Song 2007, FLAC (tracks+.cue), lossless

(free jazz) Carlos Barretto Trio, Louis Sclavis - Radio Song 2007, FLAC (tracks+.cue), lossless
Треклист:


Carlos Barretto Trio, Louis Sclavis - Radio Song 2007

Жанр: free jazz
Год выпуска: 2007
Издатель (лейбл):Clean Feed / CF072CD
Формат: FLAC (tracks+.cue)
Битрейт аудио: lossless
Продолжительность 56`45
Источник: what.cd
Bass Clarinet – Louis Sclavis
Double Bass – Carlos Barretto
Drums – José Salgueiro
Guitar – Mário Delgado

tracks

1 Distresser 8:32
2 O Rapaz Do Lixo 4:55
3 Radio Song 5:20
4 On Verra Bien 3:18
5 Searching 4:34
6 Nas Trevas 3:35
7 Luminae 5:32
8 Espírito Da Solidão 4:14
9 Final Searching 3:14
10 Asa Celta 9:32
11 Variações Em Mi 3:53


 
.log
X Lossless Decoder version 20121222 (142.2)
XLD extraction logfile from 2013-01-13 17:17:31 +0400
Carlos Barretto Trio, Louis Sclavis / Radio Song
Used drive : HL-DT-ST DVDRW GX30N (revision RP09)
Media type : Pressed CD
Ripper mode : XLD Secure Ripper
Disable audio cache : OK for the drive with a cache less than 1375KiB
Make use of C2 pointers : NO
Read offset correction : 6
Max retry count : 20
Gap status : Analyzed, Appended
TOC of the extracted CD
Track | Start | Length | Start sector | End sector
---------------------------------------------------------
1 | 00:00:00 | 08:32:33 | 0 | 38432
2 | 08:32:33 | 04:55:23 | 38433 | 60580
3 | 13:27:56 | 05:20:19 | 60581 | 84599
4 | 18:48:00 | 03:18:44 | 84600 | 99493
5 | 22:06:44 | 04:34:51 | 99494 | 120094
6 | 26:41:20 | 03:35:45 | 120095 | 136264
7 | 30:16:65 | 05:32:68 | 136265 | 161232
8 | 35:49:58 | 04:14:70 | 161233 | 180352
9 | 40:04:53 | 03:14:25 | 180353 | 194927
10 | 43:19:03 | 09:32:37 | 194928 | 237864
11 | 52:51:40 | 03:53:09 | 237865 | 255348
12 | 59:16:49 | 14:13:47 | 266749 | 330770
AccurateRip Summary
Disc not found in AccurateRip DB.
All Tracks
Album gain : -4.48 dB
Peak : 0.966248
Statistics
Read error : 0
Jitter error (maybe fixed) : 0
Retry sector count : 0
Damaged sector count : 0
Track 01
Filename : /Users/anch/Music/FLAC/Carlos Barretto Trio, Louis Sclavis - 2007 - Radio Song [FLAC]/01 - Distresser.flac
/Users/anch/Music/FLAC/Carlos Barretto Trio, Louis Sclavis - 2007 - Radio Song [MP3 320]/01 - Distresser.mp3
/Users/anch/Music/FLAC/Carlos Barretto Trio, Louis Sclavis - 2007 - Radio Song [MP3 V0]/01 - Distresser.mp3
Pre-gap length : 00:02:00
Track gain : -5.55 dB
Peak : 0.966217
CRC32 hash (test run) : B6CBEBE5
CRC32 hash : B6CBEBE5
CRC32 hash (skip zero) : BB59DDC9
AccurateRip v1 signature : 3CE99F4D
AccurateRip v2 signature : FE9F235C
->Track not present in AccurateRip database.
Statistics
Read error : 0
Jitter error (maybe fixed) : 0
Retry sector count : 0
Damaged sector count : 0
Track 02
Filename : /Users/anch/Music/FLAC/Carlos Barretto Trio, Louis Sclavis - 2007 - Radio Song [FLAC]/02 - O Rapaz do Lixo.flac
/Users/anch/Music/FLAC/Carlos Barretto Trio, Louis Sclavis - 2007 - Radio Song [MP3 320]/02 - O Rapaz do Lixo.mp3
/Users/anch/Music/FLAC/Carlos Barretto Trio, Louis Sclavis - 2007 - Radio Song [MP3 V0]/02 - O Rapaz do Lixo.mp3
Pre-gap length : 00:04:00
Track gain : -3.01 dB
Peak : 0.966217
CRC32 hash (test run) : 39FDAE1F
CRC32 hash : 39FDAE1F
CRC32 hash (skip zero) : 86B9FE7D
AccurateRip v1 signature : E377BB4F
AccurateRip v2 signature : 9958E993
->Track not present in AccurateRip database.
Statistics
Read error : 0
Jitter error (maybe fixed) : 0
Retry sector count : 0
Damaged sector count : 0
Track 03
Filename : /Users/anch/Music/FLAC/Carlos Barretto Trio, Louis Sclavis - 2007 - Radio Song [FLAC]/03 - Radio Song.flac
/Users/anch/Music/FLAC/Carlos Barretto Trio, Louis Sclavis - 2007 - Radio Song [MP3 320]/03 - Radio Song.mp3
/Users/anch/Music/FLAC/Carlos Barretto Trio, Louis Sclavis - 2007 - Radio Song [MP3 V0]/03 - Radio Song.mp3
Pre-gap length : 00:05:00
Track gain : -3.44 dB
Peak : 0.966187
CRC32 hash (test run) : 04CB3B48
CRC32 hash : 04CB3B48
CRC32 hash (skip zero) : 2B1E59AD
AccurateRip v1 signature : F0EE6A2B
AccurateRip v2 signature : 1151D5E1
->Track not present in AccurateRip database.
Statistics
Read error : 0
Jitter error (maybe fixed) : 0
Retry sector count : 0
Damaged sector count : 0
Track 04
Filename : /Users/anch/Music/FLAC/Carlos Barretto Trio, Louis Sclavis - 2007 - Radio Song [FLAC]/04 - On Verra Bien.flac
/Users/anch/Music/FLAC/Carlos Barretto Trio, Louis Sclavis - 2007 - Radio Song [MP3 320]/04 - On Verra Bien.mp3
/Users/anch/Music/FLAC/Carlos Barretto Trio, Louis Sclavis - 2007 - Radio Song [MP3 V0]/04 - On Verra Bien.mp3
Pre-gap length : 00:05:00
Track gain : -4.56 dB
Peak : 0.966187
CRC32 hash (test run) : D9D8A5B8
CRC32 hash : D9D8A5B8
CRC32 hash (skip zero) : C3E2C4D3
AccurateRip v1 signature : BDFF1324
AccurateRip v2 signature : 34472199
->Track not present in AccurateRip database.
Statistics
Read error : 0
Jitter error (maybe fixed) : 0
Retry sector count : 0
Damaged sector count : 0
Track 05
Filename : /Users/anch/Music/FLAC/Carlos Barretto Trio, Louis Sclavis - 2007 - Radio Song [FLAC]/05 - Searching.flac
/Users/anch/Music/FLAC/Carlos Barretto Trio, Louis Sclavis - 2007 - Radio Song [MP3 320]/05 - Searching.mp3
/Users/anch/Music/FLAC/Carlos Barretto Trio, Louis Sclavis - 2007 - Radio Song [MP3 V0]/05 - Searching.mp3
Pre-gap length : 00:03:00
Track gain : -3.81 dB
Peak : 0.966217
CRC32 hash (test run) : B50633C2
CRC32 hash : B50633C2
CRC32 hash (skip zero) : 99F38455
AccurateRip v1 signature : 5B8C6711
AccurateRip v2 signature : D48C9A9D
->Track not present in AccurateRip database.
Statistics
Read error : 0
Jitter error (maybe fixed) : 0
Retry sector count : 0
Damaged sector count : 0
Track 06
Filename : /Users/anch/Music/FLAC/Carlos Barretto Trio, Louis Sclavis - 2007 - Radio Song [FLAC]/06 - Nas Trevas.flac
/Users/anch/Music/FLAC/Carlos Barretto Trio, Louis Sclavis - 2007 - Radio Song [MP3 320]/06 - Nas Trevas.mp3
/Users/anch/Music/FLAC/Carlos Barretto Trio, Louis Sclavis - 2007 - Radio Song [MP3 V0]/06 - Nas Trevas.mp3
Track gain : -3.44 dB
Peak : 0.966248
CRC32 hash (test run) : F0FA12B6
CRC32 hash : F0FA12B6
CRC32 hash (skip zero) : C3A90F20
AccurateRip v1 signature : 2D3BF5FE
AccurateRip v2 signature : E2592183
->Track not present in AccurateRip database.
Statistics
Read error : 0
Jitter error (maybe fixed) : 0
Retry sector count : 0
Damaged sector count : 0
Track 07
Filename : /Users/anch/Music/FLAC/Carlos Barretto Trio, Louis Sclavis - 2007 - Radio Song [FLAC]/07 - Luminae.flac
/Users/anch/Music/FLAC/Carlos Barretto Trio, Louis Sclavis - 2007 - Radio Song [MP3 320]/07 - Luminae.mp3
/Users/anch/Music/FLAC/Carlos Barretto Trio, Louis Sclavis - 2007 - Radio Song [MP3 V0]/07 - Luminae.mp3
Track gain : -1.53 dB
Peak : 0.966217
CRC32 hash (test run) : 6FA8FE22
CRC32 hash : 6FA8FE22
CRC32 hash (skip zero) : 501CB3B9
AccurateRip v1 signature : 2FDEAFA8
AccurateRip v2 signature : 6AF7557A
->Track not present in AccurateRip database.
Statistics
Read error : 0
Jitter error (maybe fixed) : 0
Retry sector count : 0
Damaged sector count : 0
Track 08
Filename : /Users/anch/Music/FLAC/Carlos Barretto Trio, Louis Sclavis - 2007 - Radio Song [FLAC]/08 - Espírito da Solidão.flac
/Users/anch/Music/FLAC/Carlos Barretto Trio, Louis Sclavis - 2007 - Radio Song [MP3 320]/08 - Espírito da Solidão.mp3
/Users/anch/Music/FLAC/Carlos Barretto Trio, Louis Sclavis - 2007 - Radio Song [MP3 V0]/08 - Espírito da Solidão.mp3
Track gain : 1.63 dB
Peak : 0.966125
CRC32 hash (test run) : 9904A244
CRC32 hash : 9904A244
CRC32 hash (skip zero) : E1B5E866
AccurateRip v1 signature : B0352C80
AccurateRip v2 signature : 58C6841F
->Track not present in AccurateRip database.
Statistics
Read error : 0
Jitter error (maybe fixed) : 0
Retry sector count : 0
Damaged sector count : 0
Track 09
Filename : /Users/anch/Music/FLAC/Carlos Barretto Trio, Louis Sclavis - 2007 - Radio Song [FLAC]/09 - Final Searching.flac
/Users/anch/Music/FLAC/Carlos Barretto Trio, Louis Sclavis - 2007 - Radio Song [MP3 320]/09 - Final Searching.mp3
/Users/anch/Music/FLAC/Carlos Barretto Trio, Louis Sclavis - 2007 - Radio Song [MP3 V0]/09 - Final Searching.mp3
Track gain : -4.45 dB
Peak : 0.966187
CRC32 hash (test run) : 8F860E1F
CRC32 hash : 8F860E1F
CRC32 hash (skip zero) : CC726E2E
AccurateRip v1 signature : 31B1B279
AccurateRip v2 signature : 9A83DB62
->Track not present in AccurateRip database.
Statistics
Read error : 0
Jitter error (maybe fixed) : 0
Retry sector count : 0
Damaged sector count : 0
Track 10
Filename : /Users/anch/Music/FLAC/Carlos Barretto Trio, Louis Sclavis - 2007 - Radio Song [FLAC]/10 - Asa Celta.flac
/Users/anch/Music/FLAC/Carlos Barretto Trio, Louis Sclavis - 2007 - Radio Song [MP3 320]/10 - Asa Celta.mp3
/Users/anch/Music/FLAC/Carlos Barretto Trio, Louis Sclavis - 2007 - Radio Song [MP3 V0]/10 - Asa Celta.mp3
Pre-gap length : 00:04:00
Track gain : -5.79 dB
Peak : 0.966217
CRC32 hash (test run) : 8407D928
CRC32 hash : 8407D928
CRC32 hash (skip zero) : 063782C9
AccurateRip v1 signature : 57D1ACAF
AccurateRip v2 signature : D664570E
->Track not present in AccurateRip database.
Statistics
Read error : 0
Jitter error (maybe fixed) : 0
Retry sector count : 0
Damaged sector count : 0
Track 11
Filename : /Users/anch/Music/FLAC/Carlos Barretto Trio, Louis Sclavis - 2007 - Radio Song [FLAC]/11 - Variações em Mi.flac
/Users/anch/Music/FLAC/Carlos Barretto Trio, Louis Sclavis - 2007 - Radio Song [MP3 320]/11 - Variações em Mi.mp3
/Users/anch/Music/FLAC/Carlos Barretto Trio, Louis Sclavis - 2007 - Radio Song [MP3 V0]/11 - Variações em Mi.mp3
Pre-gap length : 00:04:00
Track gain : -2.00 dB
Peak : 0.966125
CRC32 hash (test run) : 300CBE0A
CRC32 hash : 300CBE0A
CRC32 hash (skip zero) : 8CAD7DC6
AccurateRip v1 signature : 68BC7C80
AccurateRip v2 signature : E36F6F57
->Track not present in AccurateRip database.
Statistics
Read error : 0
Jitter error (maybe fixed) : 0
Retry sector count : 0
Damaged sector count : 0
No errors occurred
End of status report
 
.cue
TITLE "Radio Song"
PERFORMER "Carlos Barretto Trio, Louis Sclavis"
REM GENRE "Free Jazz"
REM DATE "2007"
REM DISCID 8D113A0C
REM REPLAYGAIN_ALBUM_GAIN -4.48 dB
REM REPLAYGAIN_ALBUM_PEAK 0.966248
FILE "01 - Distresser.flac" WAVE
TRACK 01 AUDIO
TITLE "Distresser"
PERFORMER "Carlos Barretto Trio, Louis Sclavis"
REM REPLAYGAIN_TRACK_GAIN -5.55 dB
REM REPLAYGAIN_TRACK_PEAK 0.966217
INDEX 01 00:00:00
TRACK 02 AUDIO
TITLE "O Rapaz do Lixo"
PERFORMER "Carlos Barretto Trio, Louis Sclavis"
REM REPLAYGAIN_TRACK_GAIN -3.01 dB
REM REPLAYGAIN_TRACK_PEAK 0.966217
INDEX 00 08:28:33
FILE "02 - O Rapaz do Lixo.flac" WAVE
INDEX 01 00:00:00
TRACK 03 AUDIO
TITLE "Radio Song"
PERFORMER "Carlos Barretto Trio, Louis Sclavis"
REM REPLAYGAIN_TRACK_GAIN -3.44 dB
REM REPLAYGAIN_TRACK_PEAK 0.966187
INDEX 00 04:50:23
FILE "03 - Radio Song.flac" WAVE
INDEX 01 00:00:00
TRACK 04 AUDIO
TITLE "On Verra Bien"
PERFORMER "Carlos Barretto Trio, Louis Sclavis"
REM REPLAYGAIN_TRACK_GAIN -4.56 dB
REM REPLAYGAIN_TRACK_PEAK 0.966187
INDEX 00 05:15:19
FILE "04 - On Verra Bien.flac" WAVE
INDEX 01 00:00:00
TRACK 05 AUDIO
TITLE "Searching"
PERFORMER "Carlos Barretto Trio, Louis Sclavis"
REM REPLAYGAIN_TRACK_GAIN -3.81 dB
REM REPLAYGAIN_TRACK_PEAK 0.966217
INDEX 00 03:15:44
FILE "05 - Searching.flac" WAVE
INDEX 01 00:00:00
FILE "06 - Nas Trevas.flac" WAVE
TRACK 06 AUDIO
TITLE "Nas Trevas"
PERFORMER "Carlos Barretto Trio, Louis Sclavis"
REM REPLAYGAIN_TRACK_GAIN -3.44 dB
REM REPLAYGAIN_TRACK_PEAK 0.966248
INDEX 01 00:00:00
FILE "07 - Luminae.flac" WAVE
TRACK 07 AUDIO
TITLE "Luminae"
PERFORMER "Carlos Barretto Trio, Louis Sclavis"
REM REPLAYGAIN_TRACK_GAIN -1.53 dB
REM REPLAYGAIN_TRACK_PEAK 0.966217
INDEX 01 00:00:00
FILE "08 - Espirito da Solidao.flac" WAVE
TRACK 08 AUDIO
TITLE "Espírito da Solidão"
PERFORMER "Carlos Barretto Trio, Louis Sclavis"
REM REPLAYGAIN_TRACK_GAIN 1.63 dB
REM REPLAYGAIN_TRACK_PEAK 0.966125
INDEX 01 00:00:00
FILE "09 - Final Searching.flac" WAVE
TRACK 09 AUDIO
TITLE "Final Searching"
PERFORMER "Carlos Barretto Trio, Louis Sclavis"
REM REPLAYGAIN_TRACK_GAIN -4.45 dB
REM REPLAYGAIN_TRACK_PEAK 0.966187
INDEX 01 00:00:00
TRACK 10 AUDIO
TITLE "Asa Celta"
PERFORMER "Carlos Barretto Trio, Louis Sclavis"
REM REPLAYGAIN_TRACK_GAIN -5.79 dB
REM REPLAYGAIN_TRACK_PEAK 0.966217
INDEX 00 03:10:25
FILE "10 - Asa Celta.flac" WAVE
INDEX 01 00:00:00
TRACK 11 AUDIO
TITLE "Variações em Mi"
PERFORMER "Carlos Barretto Trio, Louis Sclavis"
REM REPLAYGAIN_TRACK_GAIN -2.00 dB
REM REPLAYGAIN_TRACK_PEAK 0.966125
INDEX 00 09:28:37
FILE "11 - Variacoes em Mi.flac" WAVE
INDEX 01 00:00:00

другие релизы
Any questions -> support@pro-jazz.com. По всем вопросам пишите -> support@pro-jazz.com
08:51
201
Нет комментариев. Ваш будет первым!