Вы используете незарегистрированную версию компонента "Вкладки"!

Поиск

( free jazz, ayler records) [cd] Jean-Marc Foltz - To the Moon (2010) FLAC (tracks+.cue), lossless

( free jazz, ayler records) [cd] Jean-Marc Foltz - To the Moon (2010) FLAC (tracks+.cue), lossless
Треклист:


Jean-Marc Foltz - To the Moon (2010)

Жанр: free jazz
Год выпуска: 2010
Издатель (лейбл):Ayler Records / aylCD-112
Формат: FLAC (tracks+.cue)
Битрейт аудио: lossless
Продолжительность 50:07
Источник: what.cd, JACQHAR
Jean-Marc Foltz, clarinet
Matt Turner, cello
Bill Carrothers, piano
Recorded at Creation Audio, Minneapolis, USA
on January 8, 2008.

tracks
1. Moonfleck
2. Black Butterflies
3. A Pale Washerwoman
4. Knitting Needles
5. Moondrunk
6. Crosses
7. Gallows Song
8. Old Pantomimes
9. To Colombine
10. Prayer
Total time: 50:07


 
.log
Exact Audio Copy V0.99 prebeta 5 from 4. May 2009
EAC extraction logfile from 4. December 2010, 22:46
Jean-Marc Foltz / To the Moon
Used drive : Optiarc DVD RW AD-7200S Adapter: 1 ID: 1
Read mode : Secure
Utilize accurate stream : Yes
Defeat audio cache : Yes
Make use of C2 pointers : No
Read offset correction : 48
Overread into Lead-In and Lead-Out : No
Fill up missing offset samples with silence : Yes
Delete leading and trailing silent blocks : No
Null samples used in CRC calculations : Yes
Used interface : Native Win32 interface for Win NT & 2000
Gap handling : Appended to previous track
Used output format : User Defined Encoder
Selected bitrate : 768 kBit/s
Quality : High
Add ID3 tag : No
Command line compressor : D:\Program Files\FLAC\flac.exe
Additional command line options : -V -8 -T "artist=%a" -T "title=%t" -T "album=%g" -T "date=%y" -T "tracknumber=%n" -T "genre=%m" %s
TOC of the extracted CD
Track | Start | Length | Start sector | End sector
---------------------------------------------------------
1 | 0:00.00 | 3:15.05 | 0 | 14629
2 | 3:15.05 | 3:18.55 | 14630 | 29534
3 | 6:33.60 | 3:16.47 | 29535 | 44281
4 | 9:50.32 | 5:43.35 | 44282 | 70041
5 | 15:33.67 | 6:35.48 | 70042 | 99714
6 | 22:09.40 | 5:25.05 | 99715 | 124094
7 | 27:34.45 | 5:25.61 | 124095 | 148530
8 | 33:00.31 | 4:05.69 | 148531 | 166974
9 | 37:06.25 | 4:56.23 | 166975 | 189197
10 | 42:02.48 | 8:02.57 | 189198 | 225404
Track 1
Filename J:\Music\WCD\01. Moonfleck (Jean-Marc Foltz - To the Moon - 2010).wav
Pre-gap length 0:00:02.00
Peak level 62.3 %
Track quality 100.0 %
Test CRC 3DDC2CCE
Copy CRC 3DDC2CCE
Track not present in AccurateRip database
Copy OK
Track 2
Filename J:\Music\WCD\02. Black Butterflies (Jean-Marc Foltz - To the Moon - 2010).wav
Peak level 97.1 %
Track quality 100.0 %
Test CRC F0C86051
Copy CRC F0C86051
Track not present in AccurateRip database
Copy OK
Track 3
Filename J:\Music\WCD\03. A Pale Washerwoman (Jean-Marc Foltz - To the Moon - 2010).wav
Peak level 73.7 %
Track quality 100.0 %
Test CRC 5E406959
Copy CRC 5E406959
Track not present in AccurateRip database
Copy OK
Track 4
Filename J:\Music\WCD\04. Knitting Needles (Jean-Marc Foltz - To the Moon - 2010).wav
Peak level 91.3 %
Track quality 100.0 %
Test CRC B09E951B
Copy CRC B09E951B
Track not present in AccurateRip database
Copy OK
Track 5
Filename J:\Music\WCD\05. Moondrunk (Jean-Marc Foltz - To the Moon - 2010).wav
Peak level 96.9 %
Track quality 100.0 %
Test CRC 7A71D667
Copy CRC 7A71D667
Track not present in AccurateRip database
Copy OK
Track 6
Filename J:\Music\WCD\06. Crosses (Jean-Marc Foltz - To the Moon - 2010).wav
Peak level 75.2 %
Track quality 99.9 %
Test CRC DDFC1956
Copy CRC DDFC1956
Track not present in AccurateRip database
Copy OK
Track 7
Filename J:\Music\WCD\07. Gallows Song (Jean-Marc Foltz - To the Moon - 2010).wav
Peak level 97.4 %
Track quality 100.0 %
Test CRC C4B4A3BF
Copy CRC C4B4A3BF
Track not present in AccurateRip database
Copy OK
Track 8
Filename J:\Music\WCD\08. Old Pantomimes (Jean-Marc Foltz - To the Moon - 2010).wav
Peak level 76.5 %
Track quality 100.0 %
Test CRC B276AC6D
Copy CRC B276AC6D
Track not present in AccurateRip database
Copy OK
Track 9
Filename J:\Music\WCD\09. To Colombine (Jean-Marc Foltz - To the Moon - 2010).wav
Peak level 79.1 %
Track quality 100.0 %
Test CRC 1B56876E
Copy CRC 1B56876E
Track not present in AccurateRip database
Copy OK
Track 10
Filename J:\Music\WCD\10. Prayer (Jean-Marc Foltz - To the Moon - 2010).wav
Peak level 97.1 %
Track quality 100.0 %
Test CRC 6ECFCF2B
Copy CRC 6ECFCF2B
Track not present in AccurateRip database
Copy OK
None of the tracks are present in the AccurateRip database
No errors occurred
End of status report
 
.cue
REM GENRE Jazz
REM DATE 2010
REM DISCID 8E0BBD0A
REM COMMENT ExactAudioCopy v0.99pb5
PERFORMER "Jean-Marc Foltz"
TITLE "Crosses"
FILE "01. Moonfleck (Jean-Marc Foltz - To the Moon - 2010).wav" WAVE
TRACK 01 AUDIO
TITLE "Moonfleck"
INDEX 01 00:00:00
FILE "02. Black Butterflies (Jean-Marc Foltz - To the Moon - 2010).wav" WAVE
TRACK 02 AUDIO
TITLE "Black Butterflies"
INDEX 01 00:00:00
FILE "03. A Pale Washerwoman (Jean-Marc Foltz - To the Moon - 2010).wav" WAVE
TRACK 03 AUDIO
TITLE "A Pale Washerwoman"
INDEX 01 00:00:00
FILE "04. Knitting Needles (Jean-Marc Foltz - To the Moon - 2010).wav" WAVE
TRACK 04 AUDIO
TITLE "Knitting Needles"
INDEX 01 00:00:00
FILE "05. Moondrunk (Jean-Marc Foltz - To the Moon - 2010).wav" WAVE
TRACK 05 AUDIO
TITLE "Moondrunk"
INDEX 01 00:00:00
FILE "06. Crosses (Jean-Marc Foltz - To the Moon - 2010).wav" WAVE
TRACK 06 AUDIO
TITLE "Crosses"
INDEX 01 00:00:00
FILE "07. Gallows Song (Jean-Marc Foltz - To the Moon - 2010).wav" WAVE
TRACK 07 AUDIO
TITLE "Gallows Song"
INDEX 01 00:00:00
FILE "08. Old Pantomimes (Jean-Marc Foltz - To the Moon - 2010).wav" WAVE
TRACK 08 AUDIO
TITLE "Old Pantomimes"
INDEX 01 00:00:00
FILE "09. To Colombine (Jean-Marc Foltz - To the Moon - 2010).wav" WAVE
TRACK 09 AUDIO
TITLE "To Colombine"
INDEX 01 00:00:00
FILE "10. Prayer (Jean-Marc Foltz - To the Moon - 2010).wav" WAVE
TRACK 10 AUDIO
TITLE "Prayer"
INDEX 01 00:00:00
 
.accurip
[CUETools log; Date: 20/04/14 20:26:01; Version: 2.1.4]
[CTDB TOCID: CO90zWiMwscLXB_SwR.cFfIKexc-] found.
Track | CTDB Status
1 | (1/1) Accurately ripped
2 | (1/1) Accurately ripped
3 | (1/1) Accurately ripped
4 | (1/1) Accurately ripped
5 | (1/1) Accurately ripped
6 | (1/1) Accurately ripped
7 | (1/1) Accurately ripped
8 | (1/1) Accurately ripped
9 | (1/1) Accurately ripped
10 | (1/1) Accurately ripped
[AccurateRip ID: 0010f958-008bfe59-8e0bbd0a] found.
Track [ CRC | V2 ] Status
01 [68b8b023|0c830027] (4+2/6) Accurately ripped
02 [e187c05d|31e4edc5] (4+2/6) Accurately ripped
03 [f35a4981|ffca7080] (4+2/6) Accurately ripped
04 [75b7ee1c|bbb6d2c5] (4+2/6) Accurately ripped
05 [b551f427|99be4f2c] (4+2/6) Accurately ripped
06 [b95c2a25|038e3f10] (4+2/6) Accurately ripped
07 [362f3322|06f84721] (4+2/6) Accurately ripped
08 [17888eff|e33bddd7] (4+2/6) Accurately ripped
09 [e143757c|fe0d2aad] (4+2/6) Accurately ripped
10 [f376633c|c351fd1b] (4+2/6) Accurately ripped
Track Peak [ CRC32 ] [W/O NULL] [ LOG ]
-- 97.4 [F1FE5D29] [DFCFA579]
01 62.3 [3DDC2CCE] [6B1EECBC] CRC32
02 97.1 [F0C86051] [5AE8037B] CRC32
03 73.7 [5E406959] [58BEEEBD] CRC32
04 91.3 [B09E951B] [F1AA0542] CRC32
05 96.9 [7A71D667] [C3F9CE6D] CRC32
06 75.2 [DDFC1956] [69B561B7] CRC32
07 97.4 [C4B4A3BF] [DA8B42DF] CRC32
08 76.5 [B276AC6D] [290BF6EE] CRC32
09 79.1 [1B56876E] [AF306B9A] CRC32
10 97.1 [6ECFCF2B] [64DF86D3] CRC32

http://www.discogs.com/Jean-Marc-Foltz-Matt-Turner-2-Bill-Carrothers-To-The-Moon/release/2626650
другие релизы
По всем вопросам пишите личное сообщение пользователю M0p94ok.
01:23
203
Нет комментариев. Ваш будет первым!